  0
SECTION
  2
HEADER
  9
$ACADVER
  1
AC1015
  9
$ACADMAINTVER
 70
     6
  9
$DWGCODEPAGE
  3
ANSI_1252
  9
$INSBASE
 10
0.0
 20
0.0
 30
0.0
  9
$EXTMIN
 10
0.0
 20
0.0
 30
0.0
  9
$EXTMAX
 10
11.0
 20
8.5
 30
0.0
  9
$LIMMIN
 10
0.0
 20
0.0
  9
$LIMMAX
 10
11.0
 20
8.5
  9
$ORTHOMODE
 70
     0
  9
$REGENMODE
 70
     1
  9
$FILLMODE
 70
     1
  9
$QTEXTMODE
 70
     0
  9
$MIRRTEXT
 70
     1
  9
$LTSCALE
 40
1.0
  9
$ATTMODE
 70
     1
  9
$TEXTSIZE
 40
0.1377952756
  9
$TRACEWID
 40
0.05
  9
$TEXTSTYLE
  7
Standard
  9
$CLAYER
  8
0
  9
$CELTYPE
  6
ByLayer
  9
$CECOLOR
 62
   256
  9
$CELTSCALE
 40
1.0
  9
$DISPSILH
 70
     0
  9
$DIMSCALE
 40
1.0
  9
$DIMASZ
 40
0.13
  9
$DIMEXO
 40
0.05
  9
$DIMDLI
 40
0.38
  9
$DIMRND
 40
0.0
  9
$DIMDLE
 40
0.0
  9
$DIMEXE
 40
0.125
  9
$DIMTP
 40
0.0
  9
$DIMTM
 40
0.0
  9
$DIMTXT
 40
0.1377952756
  9
$DIMCEN
 40
0.09
  9
$DIMTSZ
 40
0.0
  9
$DIMTOL
 70
     0
  9
$DIMLIM
 70
     0
  9
$DIMTIH
 70
     1
  9
$DIMTOH
 70
     1
  9
$DIMSE1
 70
     0
  9
$DIMSE2
 70
     0
  9
$DIMTAD
 70
     1
  9
$DIMZIN
 70
     0
  9
$DIMBLK
  1

  9
$DIMASO
 70
     1
  9
$DIMSHO
 70
     1
  9
$DIMPOST
  1

  9
$DIMAPOST
  1

  9
$DIMALT
 70
     0
  9
$DIMALTD
 70
     2
  9
$DIMALTF
 40
25.4
  9
$DIMLFAC
 40
1.0
  9
$DIMTOFL
 70
     0
  9
$DIMTVP
 40
0.0
  9
$DIMTIX
 70
     0
  9
$DIMSOXD
 70
     0
  9
$DIMSAH
 70
     0
  9
$DIMBLK1
  1

  9
$DIMBLK2
  1

  9
$DIMSTYLE
  2
Standard
  9
$DIMCLRD
 70
     0
  9
$DIMCLRE
 70
     0
  9
$DIMCLRT
 70
     0
  9
$DIMTFAC
 40
1.0
  9
$DIMGAP
 40
0.06
  9
$DIMJUST
 70
     0
  9
$DIMSD1
 70
     0
  9
$DIMSD2
 70
     0
  9
$DIMTOLJ
 70
     1
  9
$DIMTZIN
 70
     0
  9
$DIMALTZ
 70
     0
  9
$DIMALTTZ
 70
     0
  9
$DIMUPT
 70
     0
  9
$DIMDEC
 70
     2
  9
$DIMTDEC
 70
     2
  9
$DIMALTU
 70
     2
  9
$DIMALTTD
 70
     2
  9
$DIMTXSTY
  7
Standard
  9
$DIMAUNIT
 70
     0
  9
$DIMADEC
 70
     2
  9
$DIMALTRND
 40
0.0
  9
$DIMAZIN
 70
     0
  9
$DIMDSEP
 70
    46
  9
$DIMATFIT
 70
     3
  9
$DIMFRAC
 70
     0
  9
$DIMLDRBLK
  1

  9
$DIMLUNIT
 70
     2
  9
$DIMLWD
 70
    -2
  9
$DIMLWE
 70
    -2
  9
$DIMTMOVE
 70
     0
  9
$LUNITS
 70
     2
  9
$LUPREC
 70
     2
  9
$SKETCHINC
 40
0.1
  9
$FILLETRAD
 40
0.5
  9
$AUNITS
 70
     0
  9
$AUPREC
 70
     2
  9
$MENU
  1
.
  9
$ELEVATION
 40
0.0
  9
$PELEVATION
 40
0.0
  9
$THICKNESS
 40
0.0
  9
$LIMCHECK
 70
     0
  9
$CHAMFERA
 40
0.5
  9
$CHAMFERB
 40
0.5
  9
$CHAMFERC
 40
1.0
  9
$CHAMFERD
 40
0.0
  9
$SKPOLY
 70
     0
  9
$TDCREATE
 40
2456345.908861968
  9
$TDUCREATE
 40
2456346.242195301
  9
$TDUPDATE
 40
2456345.908865729
  9
$TDUUPDATE
 40
2456346.242199062
  9
$TDINDWG
 40
0.0000000116
  9
$TDUSRTIMER
 40
0.0000000116
  9
$USRTIMER
 70
     1
  9
$ANGBASE
 50
0.0
  9
$ANGDIR
 70
     0
  9
$PDMODE
 70
     0
  9
$PDSIZE
 40
-1.0
  9
$PLINEWID
 40
0.0
  9
$SPLFRAME
 70
     0
  9
$SPLINETYPE
 70
     6
  9
$SPLINESEGS
 70
     8
  9
$HANDSEED
  5
CC
  9
$SURFTAB1
 70
     6
  9
$SURFTAB2
 70
     6
  9
$SURFTYPE
 70
     6
  9
$SURFU
 70
     6
  9
$SURFV
 70
     6
  9
$UCSBASE
  2

  9
$UCSNAME
  2

  9
$UCSORG
 10
0.0
 20
0.0
 30
0.0
  9
$UCSXDIR
 10
1.0
 20
0.0
 30
0.0
  9
$UCSYDIR
 10
0.0
 20
1.0
 30
0.0
  9
$UCSORTHOREF
  2

  9
$UCSORTHOVIEW
 70
     0
  9
$UCSORGTOP
 10
0.0
 20
0.0
 30
0.0
  9
$UCSORGBOTTOM
 10
0.0
 20
0.0
 30
0.0
  9
$UCSORGLEFT
 10
0.0
 20
0.0
 30
0.0
  9
$UCSORGRIGHT
 10
0.0
 20
0.0
 30
0.0
  9
$UCSORGFRONT
 10
0.0
 20
0.0
 30
0.0
  9
$UCSORGBACK
 10
0.0
 20
0.0
 30
0.0
  9
$PUCSBASE
  2

  9
$PUCSNAME
  2

  9
$PUCSORG
 10
0.0
 20
0.0
 30
0.0
  9
$PUCSXDIR
 10
1.0
 20
0.0
 30
0.0
  9
$PUCSYDIR
 10
0.0
 20
1.0
 30
0.0
  9
$PUCSORTHOREF
  2

  9
$PUCSORTHOVIEW
 70
     0
  9
$PUCSORGTOP
 10
0.0
 20
0.0
 30
0.0
  9
$PUCSORGBOTTOM
 10
0.0
 20
0.0
 30
0.0
  9
$PUCSORGLEFT
 10
0.0
 20
0.0
 30
0.0
  9
$PUCSORGRIGHT
 10
0.0
 20
0.0
 30
0.0
  9
$PUCSORGFRONT
 10
0.0
 20
0.0
 30
0.0
  9
$PUCSORGBACK
 10
0.0
 20
0.0
 30
0.0
  9
$USERI1
 70
     0
  9
$USERI2
 70
     0
  9
$USERI3
 70
     0
  9
$USERI4
 70
     0
  9
$USERI5
 70
     0
  9
$USERR1
 40
0.0
  9
$USERR2
 40
0.0
  9
$USERR3
 40
0.0
  9
$USERR4
 40
0.0
  9
$USERR5
 40
0.0
  9
$WORLDVIEW
 70
     1
  9
$SHADEDGE
 70
     3
  9
$SHADEDIF
 70
    70
  9
$TILEMODE
 70
     1
  9
$MAXACTVP
 70
    64
  9
$PINSBASE
 10
0.0
 20
0.0
 30
0.0
  9
$PLIMCHECK
 70
     0
  9
$PEXTMIN
 10
1.0000000000E+20
 20
1.0000000000E+20
 30
1.0000000000E+20
  9
$PEXTMAX
 10
-1.0000000000E+20
 20
-1.0000000000E+20
 30
-1.0000000000E+20
  9
$PLIMMIN
 10
0.0
 20
0.0
  9
$PLIMMAX
 10
12.0
 20
9.0
  9
$UNITMODE
 70
     0
  9
$VISRETAIN
 70
     1
  9
$PLINEGEN
 70
     0
  9
$PSLTSCALE
 70
     1
  9
$TREEDEPTH
 70
  3020
  9
$CMLSTYLE
  2
Standard
  9
$CMLJUST
 70
     0
  9
$CMLSCALE
 40
1.0
  9
$PROXYGRAPHICS
 70
     1
  9
$MEASUREMENT
 70
     0
  9
$CELWEIGHT
370
    -1
  9
$ENDCAPS
280
     0
  9
$JOINSTYLE
280
     0
  9
$LWDISPLAY
290
     1
  9
$INSUNITS
 70
     1
  9
$HYPERLINKBASE
  1

  9
$STYLESHEET
  1

  9
$XEDIT
290
     1
  9
$CEPSNTYPE
380
     0
  9
$PSTYLEMODE
290
     1
  9
$FINGERPRINTGUID
  2
{44B3BFED-A264-4028-AEB9-1B8140D3CDC4}
  9
$VERSIONGUID
  2
{FAEB1C32-E019-11D5-929B-00C0DF256EC4}
  9
$EXTNAMES
290
     1
  9
$PSVPSCALE
 40
0.0
  9
$OLESTARTUP
290
     0
  0
ENDSEC
  0
SECTION
  2
CLASSES
  0
CLASS
  1
ACDBDICTIONARYWDFLT
  2
AcDbDictionaryWithDefault
  3
ObjectDBX Classes
 90
        0
280
     0
281
     0
  0
CLASS
  1
VISUALSTYLE
  2
AcDbVisualStyle
  3
ObjectDBX Classes
 90
     4095
280
     0
281
     0
  0
CLASS
  1
MATERIAL
  2
AcDbMaterial
  3
ObjectDBX Classes
 90
     1153
280
     0
281
     0
  0
CLASS
  1
ACDBPLACEHOLDER
  2
AcDbPlaceHolder
  3
ObjectDBX Classes
 90
        0
280
     0
281
     0
  0
CLASS
  1
LAYOUT
  2
AcDbLayout
  3
ObjectDBX Classes
 90
        0
280
     0
281
     0
  0
ENDSEC
  0
SECTION
  2
TABLES
  0
TABLE
  2
VPORT
  5
8
330
0
100
AcDbSymbolTable
 70
     1
  0
VPORT
  5
29
330
8
100
AcDbSymbolTableRecord
100
AcDbViewportTableRecord
  2
*Active
 70
     0
 10
0.0
 20
0.0
 11
1.0
 21
1.0
 12
5.5
 22
4.25
 13
0.0
 23
0.0
 14
0.5
 24
0.5
 15
0.5
 25
0.5
 16
0.0
 26
0.0
 36
1.0
 17
0.0
 27
0.0
 37
0.0
 40
8.5
 41
1.2941176471
 42
50.0
 43
0.0
 44
0.0
 50
0.0
 51
0.0
 71
     0
 72
  2000
 73
     1
 74
     3
 75
     0
 76
     0
 77
     0
 78
     0
281
     0
 65
     1
110
0.0
120
0.0
130
0.0
111
1.0
121
0.0
131
0.0
112
0.0
122
1.0
132
0.0
 79
     0
146
0.0
  0
ENDTAB
  0
TABLE
  2
LTYPE
  5
5
330
0
100
AcDbSymbolTable
 70
     6
  0
LTYPE
  5
14
330
5
100
AcDbSymbolTableRecord
100
AcDbLinetypeTableRecord
  2
ByBlock
 70
     0
  3

 72
    65
 73
     0
 40
0.0
  0
LTYPE
  5
15
330
5
100
AcDbSymbolTableRecord
100
AcDbLinetypeTableRecord
  2
ByLayer
 70
     0
  3

 72
    65
 73
     0
 40
0.0
  0
LTYPE
  5
16
330
5
100
AcDbSymbolTableRecord
100
AcDbLinetypeTableRecord
  2
Continuous
 70
     0
  3
Solid line
 72
    65
 73
     0
 40
0.0
  0
LTYPE
  5
3F
330
5
100
AcDbSymbolTableRecord
100
AcDbLinetypeTableRecord
  2
HIDDEN
 70
     0
  3
Hidden __ __ __ __ __ __ __ __ __ __ __ __ __ __
 72
    65
 73
     2
 40
0.075
 49
0.05
 74
     0
 49
-0.025
 74
     0
  0
LTYPE
  5
40
330
5
100
AcDbSymbolTableRecord
100
AcDbLinetypeTableRecord
  2
PHANTOM
 70
     0
  3
Phantom ______  __  __  ______  __  __  ______
 72
    65
 73
     6
 40
0.5
 49
0.25
 74
     0
 49
-0.05
 74
     0
 49
0.05
 74
     0
 49
-0.05
 74
     0
 49
0.05
 74
     0
 49
-0.05
 74
     0
  0
LTYPE
  5
41
330
5
100
AcDbSymbolTableRecord
100
AcDbLinetypeTableRecord
  2
CENTER
 70
     0
  3
Center ____ _ ____ _ ____ _ ____ _ ____ _ ____
 72
    65
 73
     4
 40
0.4
 49
0.25
 74
     0
 49
-0.05
 74
     0
 49
0.05
 74
     0
 49
-0.05
 74
     0
  0
LTYPE
  5
42
330
5
100
AcDbSymbolTableRecord
100
AcDbLinetypeTableRecord
  2
CENTERX2
 70
     0
  3
Center (2x) ________  __  ________  __  _____
 72
    65
 73
     4
 40
0.8
 49
0.5
 74
     0
 49
-0.1
 74
     0
 49
0.1
 74
     0
 49
-0.1
 74
     0
  0
LTYPE
  5
43
330
5
100
AcDbSymbolTableRecord
100
AcDbLinetypeTableRecord
  2
DOT2
 70
     0
  3
Dot (.5x) ........................................
 72
    65
 73
     2
 40
0.025
 49
0.0
 74
     0
 49
-0.025
 74
     0
  0
ENDTAB
  0
TABLE
  2
LAYER
  5
2
330
0
100
AcDbSymbolTable
 70
     1
  0
LAYER
  5
10
330
2
100
AcDbSymbolTableRecord
100
AcDbLayerTableRecord
  2
0
 70
     0
 62
     7
  6
Continuous
370
    -3
390
F
  0
ENDTAB
  0
TABLE
  2
STYLE
  5
3
330
0
100
AcDbSymbolTable
 70
     2
  0
STYLE
  5
11
330
3
100
AcDbSymbolTableRecord
100
AcDbTextStyleTableRecord
  2
Standard
 70
     0
 40
0.0
 41
1.0
 50
0.0
 71
     0
 42
0.1377952756
  3
txt
  4

  0
STYLE
  5
96
330
3
100
AcDbSymbolTableRecord
100
AcDbTextStyleTableRecord
  2
SLDTEXTSTYLE0
 70
     0
 40
0.0
 41
0.75
 50
0.0
 71
     0
 42
0.2
  3
TXT
  4

  0
ENDTAB
  0
TABLE
  2
VIEW
  5
6
330
0
100
AcDbSymbolTable
 70
     0
  0
ENDTAB
  0
TABLE
  2
UCS
  5
7
330
0
100
AcDbSymbolTable
 70
     0
  0
ENDTAB
  0
TABLE
  2
APPID
  5
9
330
0
100
AcDbSymbolTable
 70
     1
  0
APPID
  5
12
330
9
100
AcDbSymbolTableRecord
100
AcDbRegAppTableRecord
  2
ACAD
 70
     0
  0
ENDTAB
  0
TABLE
  2
DIMSTYLE
  5
A
330
0
100
AcDbSymbolTable
 70
     4
100
AcDbDimStyleTable
  0
DIMSTYLE
105
27
330
A
100
AcDbSymbolTableRecord
100
AcDbDimStyleTableRecord
  2
Standard
 70
     0
178
     0
340
11
  0
DIMSTYLE
105
97
102
{ACAD_REACTORS
330
95
102
}
330
A
100
AcDbSymbolTableRecord
100
AcDbDimStyleTableRecord
  2
SLDDIMSTYLE0
 70
     0
 41
0.13
 44
0.0
 45
0.000000001
 73
     0
 74
     0
 77
     1
 78
    12
 79
     3
140
0.1377952756
147
0.0344488189
148
0.000000001
170
     1
173
     1
178
     0
271
     2
272
     2
276
     2
284
    12
340
96
  0
DIMSTYLE
105
A3
102
{ACAD_REACTORS
330
A2
330
B5
102
}
330
A
100
AcDbSymbolTableRecord
100
AcDbDimStyleTableRecord
  2
SLDDIMSTYLE1
 70
     0
 41
0.13
 44
0.0
 45
0.000000001
 73
     0
 74
     0
 77
     1
 78
    12
 79
     3
140
0.1377952756
147
0.0344488189
148
0.000000001
170
     1
171
     0
173
     1
178
     0
271
     1
272
     1
274
     0
276
     2
284
    12
340
96
  0
DIMSTYLE
105
C1
102
{ACAD_REACTORS
330
C0
102
}
330
A
100
AcDbSymbolTableRecord
100
AcDbDimStyleTableRecord
  2
SLDDIMSTYLE2
 70
     0
 41
0.13
 44
0.0
 45
0.000000001
 73
     0
 74
     0
 77
     1
 78
    12
 79
     3
140
0.1377952756
147
0.0344488189
173
     1
178
     0
271
     2
272
     2
276
     2
284
    12
340
96
  0
ENDTAB
  0
TABLE
  2
BLOCK_RECORD
  5
1
330
0
100
AcDbSymbolTable
 70
     5
  0
BLOCK_RECORD
  5
1F
330
1
100
AcDbSymbolTableRecord
100
AcDbBlockTableRecord
  2
*Model_Space
340
22
  0
BLOCK_RECORD
  5
1B
330
1
100
AcDbSymbolTableRecord
100
AcDbBlockTableRecord
  2
*Paper_Space
340
1E
  0
BLOCK_RECORD
  5
23
330
1
100
AcDbSymbolTableRecord
100
AcDbBlockTableRecord
  2
*Paper_Space0
340
26
  0
BLOCK_RECORD
  5
98
330
1
100
AcDbSymbolTableRecord
100
AcDbBlockTableRecord
  2
_D
340
0
  0
BLOCK_RECORD
  5
A4
330
1
100
AcDbSymbolTableRecord
100
AcDbBlockTableRecord
  2
_D_1
340
0
  0
BLOCK_RECORD
  5
B6
330
1
100
AcDbSymbolTableRecord
100
AcDbBlockTableRecord
  2
_D_2
340
0
  0
BLOCK_RECORD
  5
C2
330
1
100
AcDbSymbolTableRecord
100
AcDbBlockTableRecord
  2
_D_3
340
0
  0
ENDTAB
  0
ENDSEC
  0
SECTION
  2
BLOCKS
  0
BLOCK
  5
20
330
1F
100
AcDbEntity
  8
0
100
AcDbBlockBegin
  2
*Model_Space
 70
     0
 10
0.0
 20
0.0
 30
0.0
  3
*Model_Space
  1

  0
ENDBLK
  5
21
330
1F
100
AcDbEntity
  8
0
100
AcDbBlockEnd
  0
BLOCK
  5
1C
330
1B
100
AcDbEntity
 67
     1
  8
0
100
AcDbBlockBegin
  2
*Paper_Space
 70
     0
 10
0.0
 20
0.0
 30
0.0
  3
*Paper_Space
  1

  0
ENDBLK
  5
1D
330
1B
100
AcDbEntity
 67
     1
  8
0
100
AcDbBlockEnd
  0
BLOCK
  5
24
330
23
100
AcDbEntity
  8
0
100
AcDbBlockBegin
  2
*Paper_Space0
 70
     0
 10
0.0
 20
0.0
 30
0.0
  3
*Paper_Space0
  1

  0
ENDBLK
  5
25
330
23
100
AcDbEntity
  8
0
100
AcDbBlockEnd
  0
BLOCK
  5
99
330
98
100
AcDbEntity
  8
0
100
AcDbBlockBegin
  2
_D
 70
     0
 10
0.0
 20
0.0
 30
0.0
  3
_D
  1

  0
SOLID
  5
9B
330
98
100
AcDbEntity
  8
0
  6
Continuous
 62
     7
370
     0
100
AcDbTrace
 10
3.7878721812
 20
7.7110051344
 30
0.0
 11
3.9178721812
 21
7.6910051344
 31
0.0
 12
3.9178721812
 22
7.7310051344
 32
0.0
 13
3.9178721812
 23
7.7310051344
 33
0.0
  0
SOLID
  5
9C
330
98
100
AcDbEntity
  8
0
  6
Continuous
 62
     7
370
     0
100
AcDbTrace
 10
7.7620733372
 20
7.7110051344
 30
0.0
 11
7.6320733372
 21
7.7310051344
 31
0.0
 12
7.6320733372
 22
7.6910051344
 32
0.0
 13
7.6320733372
 23
7.6910051344
 33
0.0
  0
LINE
  5
9D
330
98
100
AcDbEntity
  8
0
  6
Continuous
 62
     7
370
     0
100
AcDbLine
 10
3.7878721812
 20
4.7079182709
 30
0.0
 11
3.7878721812
 21
7.8360051344
 31
0.0
  0
LINE
  5
9E
330
98
100
AcDbEntity
  8
0
  6
Continuous
 62
     7
370
     0
100
AcDbLine
 10
7.7620733372
 20
4.7079182709
 30
0.0
 11
7.7620733372
 21
7.8360051344
 31
0.0
  0
LINE
  5
9F
330
98
100
AcDbEntity
  8
0
  6
Continuous
 62
     7
370
     0
100
AcDbLine
 10
3.7878721812
 20
7.7110051344
 30
0.0
 11
7.7620733372
 21
7.7110051344
 31
0.0
  0
MTEXT
  5
A0
330
98
100
AcDbEntity
  8
0
  6
Continuous
 62
     7
370
     0
100
AcDbMText
 10
5.7317006701
 20
8.1073825716
 30
0.0039370079
 40
0.1377952756
 41
0.0
 71
     1
 72
     1
  1
[102]
  7
SLDTEXTSTYLE0
 73
     1
 44
1.0
  0
MTEXT
  5
A1
330
98
100
AcDbEntity
  8
0
  6
Continuous
 62
     7
370
     0
100
AcDbMText
 10
5.821650371
 20
7.888632572
 30
0.0039370079
 40
0.1377952756
 41
0.0
 71
     1
 72
     1
  1
4.0
  7
SLDTEXTSTYLE0
 73
     1
 44
1.0
  0
ENDBLK
  5
9A
330
98
100
AcDbEntity
  8
0
100
AcDbBlockEnd
  0
BLOCK
  5
A5
330
A4
100
AcDbEntity
  8
0
100
AcDbBlockBegin
  2
_D_1
 70
     0
 10
0.0
 20
0.0
 30
0.0
  3
_D_1
  1

  0
SOLID
  5
A7
330
A4
100
AcDbEntity
  8
0
  6
Continuous
 62
     7
370
     0
100
AcDbTrace
 10
8.5425166542
 20
1.3487995984
 30
0.0
 11
8.4125166542
 21
1.3687995984
 31
0.0
 12
8.4125166542
 22
1.3287995984
 32
0.0
 13
8.4125166542
 23
1.3287995984
 33
0.0
  0
SOLID
  5
A8
330
A4
100
AcDbEntity
  8
0
  6
Continuous
 62
     7
370
     0
100
AcDbTrace
 10
3.0177189553
 20
1.3487995984
 30
0.0
 11
3.1477189553
 21
1.3287995984
 31
0.0
 12
3.1477189553
 22
1.3687995984
 32
0.0
 13
3.1477189553
 23
1.3687995984
 33
0.0
  0
LINE
  5
A9
330
A4
100
AcDbEntity
  8
0
  6
Continuous
 62
     7
370
     0
100
AcDbLine
 10
5.5304827236
 20
1.7737162014
 30
0.0
 11
5.5024930565
 21
1.7737162014
 31
0.0
  0
LINE
  5
AA
330
A4
100
AcDbEntity
  8
0
  6
Continuous
 62
     7
370
     0
100
AcDbLine
 10
5.5024930565
 20
1.7737162014
 30
0.0
 11
5.5024930565
 21
1.5549662017
 31
0.0
  0
LINE
  5
AB
330
A4
100
AcDbEntity
  8
0
  6
Continuous
 62
     7
370
     0
100
AcDbLine
 10
5.5024930565
 20
1.5549662017
 30
0.0
 11
5.5304827236
 21
1.5549662017
 31
0.0
  0
LINE
  5
AC
330
A4
100
AcDbEntity
  8
0
  6
Continuous
 62
     7
370
     0
100
AcDbLine
 10
5.9059030792
 20
1.7737162014
 30
0.0
 11
5.9338927463
 21
1.7737162014
 31
0.0
  0
LINE
  5
AD
330
A4
100
AcDbEntity
  8
0
  6
Continuous
 62
     7
370
     0
100
AcDbLine
 10
5.9338927463
 20
1.7737162014
 30
0.0
 11
5.9338927463
 21
1.5549662017
 31
0.0
  0
LINE
  5
AE
330
A4
100
AcDbEntity
  8
0
  6
Continuous
 62
     7
370
     0
100
AcDbLine
 10
5.9338927463
 20
1.5549662017
 30
0.0
 11
5.9059030792
 21
1.5549662017
 31
0.0
  0
LINE
  5
AF
330
A4
100
AcDbEntity
  8
0
  6
Continuous
 62
     7
370
     0
100
AcDbLine
 10
8.5425166542
 20
2.2953778848
 30
0.0
 11
8.5425166542
 21
1.2237995984
 31
0.0
  0
LINE
  5
B0
330
A4
100
AcDbEntity
  8
0
  6
Continuous
 62
     7
370
     0
100
AcDbLine
 10
3.0177189553
 20
2.2953778848
 30
0.0
 11
3.0177189553
 21
1.2237995984
 31
0.0
  0
LINE
  5
B1
330
A4
100
AcDbEntity
  8
0
  6
Continuous
 62
     7
370
     0
100
AcDbLine
 10
8.5425166542
 20
1.3487995984
 30
0.0
 11
3.0177189553
 21
1.3487995984
 31
0.0
  0
MTEXT
  5
B2
330
A4
100
AcDbEntity
  8
0
  6
Continuous
 62
     7
370
     0
100
AcDbMText
 10
5.565469804
 20
1.7325936393
 30
0.0026290168
 40
0.1377952756
 41
0.0
 71
     1
 72
     1
  1
140
  7
SLDTEXTSTYLE0
 73
     1
 44
1.0
  0
MTEXT
  5
B3
330
A4
100
AcDbEntity
  8
0
  6
Continuous
 62
     7
370
     0
100
AcDbMText
 10
5.4310380653
 20
1.5264270245
 30
0.0026290168
 40
0.1377952756
 41
0.0
 71
     1
 72
     1
  1
%%c
  7
SLDTEXTSTYLE0
 73
     1
 44
1.0
  0
MTEXT
  5
B4
330
A4
100
AcDbEntity
  8
0
  6
Continuous
 62
     7
370
     0
100
AcDbMText
 10
5.6388505613
 20
1.5264270245
 30
0.0026290168
 40
0.1377952756
 41
0.0
 71
     1
 72
     1
  1
5.5
  7
SLDTEXTSTYLE0
 73
     1
 44
1.0
  0
ENDBLK
  5
A6
330
A4
100
AcDbEntity
  8
0
100
AcDbBlockEnd
  0
BLOCK
  5
B7
330
B6
100
AcDbEntity
  8
0
100
AcDbBlockBegin
  2
_D_2
 70
     0
 10
0.0
 20
0.0
 30
0.0
  3
_D_2
  1

  0
SOLID
  5
B9
330
B6
100
AcDbEntity
  8
0
  6
Continuous
 62
     7
370
     0
100
AcDbTrace
 10
2.2049149421
 20
4.6480121968
 30
0.0
 11
2.1849149421
 21
4.5180121968
 31
0.0
 12
2.2249149421
 22
4.5180121968
 32
0.0
 13
2.2249149421
 23
4.5180121968
 33
0.0
  0
SOLID
  5
BA
330
B6
100
AcDbEntity
  8
0
  6
Continuous
 62
     7
370
     0
100
AcDbTrace
 10
2.2049149421
 20
2.2149413307
 30
0.0
 11
2.2249149421
 21
2.3449413307
 31
0.0
 12
2.1849149421
 22
2.3449413307
 32
0.0
 13
2.1849149421
 23
2.3449413307
 33
0.0
  0
LINE
  5
BB
330
B6
100
AcDbEntity
  8
0
  6
Continuous
 62
     7
370
     0
100
AcDbLine
 10
3.5312375435
 20
4.6480121968
 30
0.0
 11
2.0799149421
 21
4.6480121968
 31
0.0
  0
LINE
  5
BC
330
B6
100
AcDbEntity
  8
0
  6
Continuous
 62
     7
370
     0
100
AcDbLine
 10
2.9938973323
 20
2.2149413307
 30
0.0
 11
2.0799149421
 21
2.2149413307
 31
0.0
  0
LINE
  5
BD
330
B6
100
AcDbEntity
  8
0
  6
Continuous
 62
     7
370
     0
100
AcDbLine
 10
2.2049149421
 20
4.6480121968
 30
0.0
 11
2.2049149421
 21
2.2149413307
 31
0.0
  0
MTEXT
  5
BE
330
B6
100
AcDbEntity
  8
0
  6
Continuous
 62
     7
370
     0
100
AcDbMText
 10
1.8085375049
 20
3.1830297654
 30
0.0026290168
 40
0.1377952756
 41
0.0
 71
     1
 72
     1
  1
[63]
  7
SLDTEXTSTYLE0
 11
-7.044195017643634E-15
 21
1.0
 31
0.0
 73
     1
 44
1.0
  0
MTEXT
  5
BF
330
B6
100
AcDbEntity
  8
0
  6
Continuous
 62
     7
370
     0
100
AcDbMText
 10
2.0272875045
 20
3.1711640558
 30
0.0026290168
 40
0.1377952756
 41
0.0
 71
     1
 72
     1
  1
2.48
  7
SLDTEXTSTYLE0
 11
-7.044195017643634E-15
 21
1.0
 31
0.0
 73
     1
 44
1.0
  0
ENDBLK
  5
B8
330
B6
100
AcDbEntity
  8
0
100
AcDbBlockEnd
  0
BLOCK
  5
C3
330
C2
100
AcDbEntity
  8
0
100
AcDbBlockBegin
  2
_D_3
 70
     0
 10
0.0
 20
0.0
 30
0.0
  3
_D_3
  1

  0
SOLID
  5
C5
330
C2
100
AcDbEntity
  8
0
  6
Continuous
 62
     7
370
     0
100
AcDbTrace
 10
2.2049149421
 20
7.0810830629
 30
0.0
 11
2.1849149421
 21
6.9510830629
 31
0.0
 12
2.2249149421
 22
6.9510830629
 32
0.0
 13
2.2249149421
 23
6.9510830629
 33
0.0
  0
SOLID
  5
C6
330
C2
100
AcDbEntity
  8
0
  6
Continuous
 62
     7
370
     0
100
AcDbTrace
 10
2.2049149421
 20
4.6480121968
 30
0.0
 11
2.2249149421
 21
4.7780121968
 31
0.0
 12
2.1849149421
 22
4.7780121968
 32
0.0
 13
2.1849149421
 23
4.7780121968
 33
0.0
  0
LINE
  5
C7
330
C2
100
AcDbEntity
  8
0
  6
Continuous
 62
     7
370
     0
100
AcDbLine
 10
5.724974577
 20
7.0810830629
 30
0.0
 11
2.0799149421
 21
7.0810830629
 31
0.0
  0
LINE
  5
C8
330
C2
100
AcDbEntity
  8
0
  6
Continuous
 62
     7
370
     0
100
AcDbLine
 10
3.5312375435
 20
4.6480121968
 30
0.0
 11
2.0799149421
 21
4.6480121968
 31
0.0
  0
LINE
  5
C9
330
C2
100
AcDbEntity
  8
0
  6
Continuous
 62
     7
370
     0
100
AcDbLine
 10
2.2049149421
 20
7.0810830629
 30
0.0
 11
2.2049149421
 21
4.6480121968
 31
0.0
  0
MTEXT
  5
CA
330
C2
100
AcDbEntity
  8
0
  6
Continuous
 62
     7
370
     0
100
AcDbMText
 10
1.8085375049
 20
5.7245492254
 30
0.0026290168
 40
0.1377952756
 41
0.0
 71
     1
 72
     1
  1
[62]
  7
SLDTEXTSTYLE0
 11
-7.044195017643634E-15
 21
1.0
 31
0.0
 73
     1
 44
1.0
  0
MTEXT
  5
CB
330
C2
100
AcDbEntity
  8
0
  6
Continuous
 62
     7
370
     0
100
AcDbMText
 10
2.0272875045
 20
5.7126835158
 30
0.0026290168
 40
0.1377952756
 41
0.0
 71
     1
 72
     1
  1
2.44
  7
SLDTEXTSTYLE0
 11
-7.044195017643634E-15
 21
1.0
 31
0.0
 73
     1
 44
1.0
  0
ENDBLK
  5
C4
330
C2
100
AcDbEntity
  8
0
100
AcDbBlockEnd
  0
ENDSEC
  0
SECTION
  2
ENTITIES
  0
ARC
  5
44
330
1F
100
AcDbEntity
  8
0
  6
Continuous
 62
     7
370
    15
100
AcDbCircle
 10
3.0373972491
 20
2.3448625905
 30
0.0
 40
0.0196850393700787
100
AcDbArc
 50
178.5
 51
270.0
  0
ARC
  5
45
330
1F
100
AcDbEntity
  8
0
  6
Continuous
 62
     7
370
    15
100
AcDbCircle
 10
8.5228383604
 20
2.3448625905
 30
0.0
 40
0.0196850393700792
100
AcDbArc
 50
270.0
 51
1.5
  0
LINE
  5
46
330
1F
100
AcDbEntity
  8
0
  6
Continuous
 62
     7
370
    15
100
AcDbLine
 10
8.5425167733
 20
2.3453778851
 30
0.0
 11
8.4971688438
 21
4.0771460856
 31
0.0
  0
LINE
  5
47
330
1F
100
AcDbEntity
  8
0
  6
Continuous
 62
     7
370
    15
100
AcDbLine
 10
3.062948847
 20
4.072636431
 30
0.0
 11
3.0177188362
 21
2.3453778851
 31
0.0
  0
LINE
  5
48
330
1F
100
AcDbEntity
  8
0
  6
Continuous
 62
     7
370
    15
100
AcDbLine
 10
8.516338249
 20
2.2149413346
 30
0.0
 11
8.516338249
 21
2.3251775511
 31
0.0
  0
LINE
  5
49
330
1F
100
AcDbEntity
  8
0
  6
Continuous
 62
     7
370
    15
100
AcDbLine
 10
3.0438973604
 20
2.3251775511
 30
0.0
 11
3.0438973604
 21
2.2149413346
 31
0.0
  0
SPLINE
  5
4A
330
1F
100
AcDbEntity
  8
0
  6
Continuous
 62
     7
370
    15
100
AcDbSpline
210
0.0
220
0.0
230
1.0
 70
     8
 71
     3
 72
    26
 73
    22
 74
     0
 42
0.00000001
 43
0.00000001
 12
1.0
 22
0.0
 32
0.0
 13
1.0
 23
0.0
 33
0.0
 40
0.0
 40
0.0
 40
0.0
 40
0.0
 40
0.0539912876336977
 40
0.1085344200135377
 40
0.163472452240037
 40
0.2186425191372512
 40
0.2739011447669958
 40
0.3291496113158643
 40
0.3812207397001353
 40
0.4333381832533812
 40
0.4855233907503549
 40
0.5377358031984902
 40
0.5898876384878622
 40
0.6478687545993955
 40
0.705430454663259
 40
0.7623743371254672
 40
0.818721155843353
 40
0.8749174549635618
 40
0.9312491523289743
 40
0.987808284855485
 40
1.0
 40
1.0
 40
1.0
 40
1.0
 10
5.774974576954901
 20
7.08108319716571
 30
0.0
 10
5.71125386709007
 20
7.079144831989697
 30
0.0
 10
5.58316115822654
 20
7.075248289614559
 30
0.0
 10
5.39225481294484
 20
7.044619249677652
 30
0.0
 10
5.203830391135257
 20
6.99647028024467
 30
0.0
 10
5.020281116152758
 20
6.92934914245832
 30
0.0
 10
4.844012393382931
 20
6.844155796879619
 30
0.0
 10
4.680560050204487
 20
6.743095632935803
 30
0.0
 10
4.531649097555887
 20
6.627666440873087
 30
0.0
 10
4.397368759593906
 20
6.500765959786631
 30
0.0
 10
4.27531798353076
 20
6.361874838229775
 30
0.0
 10
4.166049414498701
 20
6.212689718125714
 30
0.0
 10
4.066429466780655
 20
6.048850213649462
 30
0.0
 10
3.978949418115886
 20
5.871081263862759
 30
0.0
 10
3.906379871362593
 20
5.680659322901213
 30
0.0
 10
3.852698848080272
 20
5.486043289811724
 30
0.0
 10
3.81829103819751
 20
5.288816341288425
 30
0.0
 10
3.798850590717028
 20
5.090407774313397
 30
0.0
 10
3.790128169364885
 20
4.891063284701734
 30
0.0
 10
3.788280073588363
 20
4.743501360703304
 30
0.0
 10
3.787923130222887
 20
4.662394959254522
 30
0.0
 10
3.787859832794826
 20
4.648012210876032
 30
0.0
  0
SPLINE
  5
4B
330
1F
100
AcDbEntity
  8
0
  6
Continuous
 62
     7
370
    15
100
AcDbSpline
210
0.0
220
0.0
230
1.0
 70
     8
 71
     3
 72
    25
 73
    21
 74
     0
 42
0.00000001
 43
0.00000001
 12
1.0
 22
0.0
 32
0.0
 13
1.0
 23
0.0
 33
0.0
 40
0.0
 40
0.0
 40
0.0
 40
0.0
 40
0.0093756934474367
 40
0.0631433583881272
 40
0.1167038446229077
 40
0.1701193546704859
 40
0.2236009961075632
 40
0.2775372859299243
 40
0.3418565802322334
 40
0.4067469606665304
 40
0.4719344974100995
 40
0.5371884571417189
 40
0.5953934406710278
 40
0.6535191622589868
 40
0.7116451185209166
 40
0.7697983370082991
 40
0.8278810334269147
 40
0.8857336845928715
 40
0.9431680842404152
 40
1.0
 40
1.0
 40
1.0
 40
1.0
 10
7.762101895344718
 20
4.648012210876032
 30
0.0
 10
7.762052475749925
 20
4.659072216219525
 30
0.0
 10
7.761719644988878
 20
4.733559067255563
 30
0.0
 10
7.760180726861146
 20
4.871228422580555
 30
0.0
 10
7.752812782097485
 20
5.060752361494583
 30
0.0
 10
7.736343371707878
 20
5.249420096248805
 30
0.0
 10
7.707188829679018
 20
5.437094916877916
 30
0.0
 10
7.658572887025423
 20
5.634055499989225
 30
0.0
 10
7.585954065120344
 20
5.837978796077192
 30
0.0
 10
7.48680402948445
 20
6.045214339725849
 30
0.0
 10
7.365879973854711
 20
6.241866687252784
 30
0.0
 10
7.229316916265681
 20
6.418159537707115
 30
0.0
 10
7.080554796628832
 20
6.572801718583933
 30
0.0
 10
6.922648243051867
 20
6.705440502588975
 30
0.0
 10
6.750724305408561
 20
6.819258797248269
 30
0.0
 10
6.567371108475599
 20
6.913325884032917
 30
0.0
 10
6.375431571889489
 20
6.98749780121415
 30
0.0
 10
6.177678219046411
 20
7.040728493933154
 30
0.0
 10
5.976901766191312
 20
7.074618585480906
 30
0.0
 10
5.842046626326771
 20
7.078935914495492
 30
0.0
 10
5.774974576954901
 20
7.08108319716571
 30
0.0
  0
LINE
  5
4C
330
1F
100
AcDbEntity
  8
0
  6
Continuous
 62
     7
370
    15
100
AcDbLine
 10
8.4908226504
 20
4.0771460856
 30
0.0
 11
8.4799145898
 21
4.3895063972
 31
0.0
  0
LINE
  5
4D
330
1F
100
AcDbEntity
  8
0
  6
Continuous
 62
     7
370
    15
100
AcDbLine
 10
3.0700345252
 20
4.3895063972
 30
0.0
 11
3.0591032915
 21
4.0764818399
 31
0.0
  0
LINE
  5
4E
330
1F
100
AcDbEntity
  8
0
  6
Continuous
 62
     7
370
    15
100
AcDbLine
 10
3.0591032915
 20
4.0764818399
 30
0.0
 11
3.0629491404
 21
4.0726361377
 31
0.0
  0
ARC
  5
4F
330
1F
100
AcDbEntity
  8
0
  6
Continuous
 62
     7
370
    15
100
AcDbCircle
 10
8.4405686322
 20
4.3881324626
 30
0.0
 40
0.0393700787401586
100
AcDbArc
 50
2.0
 51
61.702033676
  0
ARC
  5
50
330
1F
100
AcDbEntity
  8
0
  6
Continuous
 62
     7
370
    15
100
AcDbCircle
 10
3.1093805219
 20
4.3881324626
 30
0.0
 40
0.0393700787401573
100
AcDbArc
 50
118.297966324
 51
178.0
  0
ARC
  5
51
330
1F
100
AcDbEntity
  8
0
  6
Continuous
 62
     7
370
    15
100
AcDbCircle
 10
4.023899848
 20
2.6895413271
 30
0.0
 40
1.968503937007874
100
AcDbArc
 50
117.6886407687
 51
118.297966324
  0
ARC
  5
52
330
1F
100
AcDbEntity
  8
0
  6
Continuous
 62
     7
370
    15
100
AcDbCircle
 10
7.5260493061
 20
2.6895413271
 30
0.0
 40
1.968503937007874
100
AcDbArc
 50
61.702033676
 51
62.3065537952
  0
ARC
  5
53
330
1F
100
AcDbEntity
  8
0
  6
Continuous
 62
     7
370
    15
100
AcDbCircle
 10
4.023899848
 20
2.6895413271
 30
0.0
 40
2.007874015748031
100
AcDbArc
 50
115.664963598
 51
116.6902523893
  0
ARC
  5
54
330
1F
100
AcDbEntity
  8
0
  6
Continuous
 62
     7
370
    15
100
AcDbCircle
 10
4.023899848
 20
2.6895413271
 30
0.0
 40
2.007874015748032
100
AcDbArc
 50
102.7362396382
 51
106.1839231373
  0
ARC
  5
55
330
1F
100
AcDbEntity
  8
0
  6
Continuous
 62
     7
370
    15
100
AcDbCircle
 10
7.5260493061
 20
2.6895413271
 30
0.0
 40
2.007874015748032
100
AcDbArc
 50
73.849648242
 51
77.2637603618
  0
ARC
  5
56
330
1F
100
AcDbEntity
  8
0
  6
Continuous
 62
     7
370
    15
100
AcDbCircle
 10
7.5260493061
 20
2.6895413271
 30
0.0
 40
2.007874015748031
100
AcDbArc
 50
63.3081567972
 51
64.3081597543
  0
SPLINE
  5
57
330
1F
100
AcDbEntity
  8
0
  6
Continuous
 62
     7
370
    15
100
AcDbSpline
210
0.0
220
0.0
230
1.0
 70
     8
 71
     3
 72
    17
 73
    13
 74
     0
 42
0.00000001
 43
0.00000001
 12
1.0
 22
0.0
 32
0.0
 13
1.0
 23
0.0
 33
0.0
 40
0.0
 40
0.0
 40
0.0
 40
0.0
 40
0.0802627371465899
 40
0.1794473201506196
 40
0.3522225068512622
 40
0.4464481113364805
 40
0.5095015669468325
 40
0.5846983715779488
 40
0.6706978636440009
 40
0.7687191042455428
 40
0.8783133501091028
 40
1.0
 40
1.0
 40
1.0
 40
1.0
 10
5.841185400519318
 20
4.54412809095425
 30
0.0
 10
5.84076858552119
 20
4.542433349062893
 30
0.0
 10
5.839836691879488
 20
4.538644331873066
 30
0.0
 10
5.829287447417133
 20
4.527239320551042
 30
0.0
 10
5.806797030373298
 20
4.512884873619098
 30
0.0
 10
5.776886110809542
 20
4.501699343809642
 30
0.0
 10
5.752828990124938
 20
4.495153907063468
 30
0.0
 10
5.727525838693396
 20
4.490257772825235
 30
0.0
 10
5.696312375403433
 20
4.486852158367102
 30
0.0
 10
5.660047462011134
 20
4.486331548148444
 30
0.0
 10
5.620086347310807
 20
4.489778078824042
 30
0.0
 10
5.596039779320225
 20
4.495816301598208
 30
0.0
 10
5.583387864035124
 20
4.498993265688936
 30
0.0
  0
SPLINE
  5
58
330
1F
100
AcDbEntity
  8
0
  6
Continuous
 62
     7
370
    15
100
AcDbSpline
210
0.0
220
0.0
230
1.0
 70
     8
 71
     3
 72
    11
 73
     7
 74
     0
 42
0.00000001
 43
0.00000001
 12
1.0
 22
0.0
 32
0.0
 13
1.0
 23
0.0
 33
0.0
 40
0.0
 40
0.0
 40
0.0
 40
0.0
 40
0.2900159346121743
 40
0.5525829263487689
 40
0.7893137584743892
 40
1.0
 40
1.0
 40
1.0
 40
1.0
 10
5.583387900701367
 20
4.498993265688936
 30
0.0
 10
5.571749782890739
 20
4.503080295308925
 30
0.0
 10
5.54957505236916
 20
4.510867532208537
 30
0.0
 10
5.530827174891684
 20
4.523283595875281
 30
0.0
 10
5.520969805216623
 20
4.533430075737469
 30
0.0
 10
5.519920438802821
 20
4.538930442109155
 30
0.0
 10
5.519426297924594
 20
4.541520534410299
 30
0.0
  0
LINE
  5
59
330
1F
100
AcDbEntity
  8
0
  6
Continuous
 62
     7
370
    15
100
AcDbLine
 10
8.441891109
 20
4.4320691588
 30
0.0
 11
8.441891109
 21
4.4646406625
 31
0.0
  0
SPLINE
  5
5A
330
1F
100
AcDbEntity
  8
0
  6
Continuous
 62
     7
370
    15
100
AcDbSpline
210
0.0
220
0.0
230
1.0
 70
     8
 71
     3
 72
     9
 73
     5
 74
     0
 42
0.00000001
 43
0.00000001
 12
1.0
 22
0.0
 32
0.0
 13
1.0
 23
0.0
 33
0.0
 40
0.0
 40
0.0
 40
0.0
 40
0.0
 40
0.5012421402960001
 40
1.0
 40
1.0
 40
1.0
 40
1.0
 10
8.441893455667937
 20
4.464113841952349
 30
0.0
 10
8.441310081992057
 20
4.467876650842627
 30
0.0
 10
8.440146225985188
 20
4.47538361920737
 30
0.0
 10
8.433628617269795
 20
4.479955209403225
 30
0.0
 10
8.430377908696519
 20
4.482235325944753
 30
0.0
  0
LINE
  5
5B
330
1F
100
AcDbEntity
  8
0
  6
Continuous
 62
     7
370
    15
100
AcDbLine
 10
3.1080580059
 20
4.4645888898
 30
0.0
 11
3.1080580059
 21
4.4320876386
 31
0.0
  0
SPLINE
  5
5C
330
1F
100
AcDbEntity
  8
0
  6
Continuous
 62
     7
370
    15
100
AcDbSpline
210
0.0
220
0.0
230
1.0
 70
     8
 71
     3
 72
     9
 73
     5
 74
     0
 42
0.00000001
 43
0.00000001
 12
1.0
 22
0.0
 32
0.0
 13
1.0
 23
0.0
 33
0.0
 40
0.0
 40
0.0
 40
0.0
 40
0.0
 40
0.4987227816165485
 40
1.0
 40
1.0
 40
1.0
 40
1.0
 10
3.119570326265566
 20
4.482234885949836
 30
0.0
 10
3.116320077372653
 20
4.479954862041702
 30
0.0
 10
3.109802931950944
 20
4.475383136040452
 30
0.0
 10
3.108639465280242
 20
4.467876860303922
 30
0.0
 10
3.108056245943871
 20
4.464114135282294
 30
0.0
  0
SPLINE
  5
5D
330
1F
100
AcDbEntity
  8
0
  6
Continuous
 62
     7
370
    15
100
AcDbSpline
210
0.0
220
0.0
230
1.0
 70
    24
 71
     3
 72
    14
 73
    10
 74
     0
 42
0.00000001
 43
0.00000001
 12
1.0
 22
0.0
 32
0.0
 13
1.0
 23
0.0
 33
0.0
 40
0.0
 40
0.0
 40
0.0
 40
0.0
 40
0.25
 40
0.25
 40
0.5
 40
0.5
 40
0.75
 40
0.75
 40
1.0
 40
1.0
 40
1.0
 40
1.0
 10
8.522838360380282
 20
2.325177551126903
 30
0.0
 10
8.522838360380282
 20
2.325177551126903
 30
0.0
 10
8.233859431833944
 20
2.325177551126903
 30
0.0
 10
7.205168785224632
 20
2.325177551126903
 30
0.0
 10
6.507511936688012
 20
2.325177551126903
 30
0.0
 10
5.052723672766776
 20
2.325177551126903
 30
0.0
 10
4.355066824230156
 20
2.325177551126903
 30
0.0
 10
3.326376177620846
 20
2.325177551126903
 30
0.0
 10
3.037397249074506
 20
2.325177551126903
 30
0.0
 10
3.037397249074506
 20
2.325177551126903
 30
0.0
  0
LINE
  5
5E
330
1F
100
AcDbEntity
  8
0
  6
Continuous
 62
     7
370
    15
100
AcDbLine
 10
8.4971688438
 20
4.0771460856
 30
0.0
 11
3.0630667657
 21
4.0771460856
 31
0.0
  0
LINE
  5
5F
330
1F
100
AcDbEntity
  8
0
  6
Continuous
 62
     7
370
    15
100
AcDbLine
 10
3.0438973604
 20
2.2149413346
 30
0.0
 11
8.516338249
 21
2.2149413346
 31
0.0
  0
LINE
  5
60
330
1F
100
AcDbEntity
  8
0
  6
Continuous
 62
     7
370
    15
100
AcDbLine
 10
8.516338249
 20
2.3251775511
 30
0.0
 11
3.0438973604
 21
2.3251775511
 31
0.0
  0
LINE
  5
61
330
1F
100
AcDbEntity
  8
0
  6
Continuous
 62
     7
370
    15
100
AcDbLine
 10
8.4888579265
 20
4.0764818399
 30
0.0
 11
3.0591032915
 21
4.0764818399
 31
0.0
  0
SPLINE
  5
62
330
1F
100
AcDbEntity
  8
0
  6
Continuous
 62
     7
370
    15
100
AcDbSpline
210
0.0
220
0.0
230
1.0
 70
     8
 71
     3
 72
    25
 73
    21
 74
     0
 42
0.00000001
 43
0.00000001
 12
1.0
 22
0.0
 32
0.0
 13
1.0
 23
0.0
 33
0.0
 40
0.0
 40
0.0
 40
0.0
 40
0.0
 40
0.0578674575678857
 40
0.1159174051635783
 40
0.1737824264907705
 40
0.2316868899782585
 40
0.2897788084309967
 40
0.3476760769173098
 40
0.4046685479708536
 40
0.4618488855109402
 40
0.5188382355494147
 40
0.5746758485486055
 40
0.6306926901250062
 40
0.6865344856970677
 40
0.7424803955329771
 40
0.7985999901551145
 40
0.8545519040818497
 40
0.9029984200105702
 40
0.9515525806367287
 40
1.0
 40
1.0
 40
1.0
 40
1.0
 10
6.923730813612328
 20
4.564332657549373
 30
0.0
 10
6.889477537014231
 20
4.556873118511509
 30
0.0
 10
6.820862963150433
 20
4.54193051613484
 30
0.0
 10
6.700089386765367
 20
4.519763592672333
 30
0.0
 10
6.568033313868054
 20
4.498770820422491
 30
0.0
 10
6.424467657577385
 20
4.479802700896735
 30
0.0
 10
6.271925818931122
 20
4.463475252949789
 30
0.0
 10
6.112996177143317
 20
4.450450805724643
 30
0.0
 10
5.949684465913919
 20
4.441408634743198
 30
0.0
 10
5.784375811736467
 20
4.436406742970579
 30
0.0
 10
5.619394232871422
 20
4.435591043402598
 30
0.0
 10
5.456989612947513
 20
4.439152454990615
 30
0.0
 10
5.299104462241695
 20
4.44659856289744
 30
0.0
 10
5.146413342330941
 20
4.457697186628993
 30
0.0
 10
5.001056062577339
 20
4.472226510491122
 30
0.0
 10
4.864533013187914
 20
4.489476832616732
 30
0.0
 10
4.743985492065431
 20
4.507998077734138
 30
0.0
 10
4.639731124036043
 20
4.526939969972905
 30
0.0
 10
4.549484677643823
 20
4.5456022350803
 30
0.0
 10
4.498301176775918
 20
4.558093765317397
 30
0.0
 10
4.472737587695225
 20
4.564332657549373
 30
0.0
  0
SPLINE
  5
63
330
1F
100
AcDbEntity
  8
0
  6
Continuous
 62
     7
370
    15
100
AcDbSpline
210
0.0
220
0.0
230
1.0
 70
     8
 71
     3
 72
    13
 73
     9
 74
     0
 42
0.00000001
 43
0.00000001
 12
1.0
 22
0.0
 32
0.0
 13
1.0
 23
0.0
 33
0.0
 40
0.0
 40
0.0
 40
0.0
 40
0.0
 40
0.1505548217141245
 40
0.3011243659227449
 40
0.4548894708397912
 40
0.6086565734194402
 40
0.8034750887475897
 40
1.0
 40
1.0
 40
1.0
 40
1.0
 10
7.724284332216434
 20
4.563830770013887
 30
0.0
 10
7.678024533256735
 20
4.570366114881002
 30
0.0
 10
7.585500411671952
 20
4.583437443695251
 30
0.0
 10
7.451929071416485
 20
4.593704268460667
 30
0.0
 10
7.323100504830451
 20
4.598585621507796
 30
0.0
 10
7.189491819872502
 20
4.597101383790721
 30
0.0
 10
7.053411506409758
 20
4.588641889073857
 30
0.0
 10
6.967083185228585
 20
4.572459255395371
 30
0.0
 10
6.923730813612328
 20
4.564332657549373
 30
0.0
  0
SPLINE
  5
64
330
1F
100
AcDbEntity
  8
0
  6
Continuous
 62
     7
370
    15
100
AcDbSpline
210
0.0
220
0.0
230
1.0
 70
     8
 71
     3
 72
    20
 73
    16
 74
     0
 42
0.00000001
 43
0.00000001
 12
1.0
 22
0.0
 32
0.0
 13
1.0
 23
0.0
 33
0.0
 40
0.0
 40
0.0
 40
0.0
 40
0.0
 40
0.0370826119359927
 40
0.1163335337294827
 40
0.1955847675823079
 40
0.277170354260344
 40
0.3587569435463773
 40
0.4379958558692809
 40
0.5172359116637787
 40
0.5987113958395084
 40
0.6801879557331013
 40
0.7590802501539221
 40
0.8379730152329976
 40
0.9189864731507379
 40
1.0
 40
1.0
 40
1.0
 40
1.0
 10
8.440827787978622
 20
4.43206915880193
 30
0.0
 10
8.441024199303754
 20
4.43185432237559
 30
0.0
 10
8.441640370126795
 20
4.431180349336876
 30
0.0
 10
8.432514147256033
 20
4.432419225226115
 30
0.0
 10
8.413246536685342
 20
4.435808940301825
 30
0.0
 10
8.383179599632925
 20
4.441667106916968
 30
0.0
 10
8.343350540977742
 20
4.449675862574222
 30
0.0
 10
8.294421017431459
 20
4.459608015901065
 30
0.0
 10
8.236672132884543
 20
4.471263471225202
 30
0.0
 10
8.169658578133726
 20
4.484587160655513
 30
0.0
 10
8.094479446712194
 20
4.499171630804302
 30
0.0
 10
8.012540305890447
 20
4.514577156363879
 30
0.0
 10
7.923803710371074
 20
4.530602063816843
 30
0.0
 10
7.828157418056761
 20
4.547162667405568
 30
0.0
 10
7.758908703983424
 20
4.558274734235304
 30
0.0
 10
7.724284332216434
 20
4.563830770013887
 30
0.0
  0
SPLINE
  5
65
330
1F
100
AcDbEntity
  8
0
  6
Continuous
 62
     7
370
    15
100
AcDbSpline
210
0.0
220
0.0
230
1.0
 70
     8
 71
     3
 72
    19
 73
    15
 74
     0
 42
0.00000001
 43
0.00000001
 12
1.0
 22
0.0
 32
0.0
 13
1.0
 23
0.0
 33
0.0
 40
0.0
 40
0.0
 40
0.0
 40
0.0
 40
0.0911161700637392
 40
0.1822321641460407
 40
0.2759781163352605
 40
0.3697231948876138
 40
0.4608498618344986
 40
0.5519753593720166
 40
0.6458312985064816
 40
0.739685697230628
 40
0.8222692589674612
 40
0.9048521014641212
 40
0.9895387310224751
 40
1.0
 40
1.0
 40
1.0
 40
1.0
 10
3.730643920424595
 20
4.563830770013887
 30
0.0
 10
3.697545963029665
 20
4.558229059886748
 30
0.0
 10
3.631350112165081
 20
4.547025650451593
 30
0.0
 10
3.539489373432658
 20
4.530023101987541
 30
0.0
 10
3.453907709298811
 20
4.51328508617615
 30
0.0
 10
3.376692299736259
 20
4.49729703943495
 30
0.0
 10
3.308872743147869
 20
4.482549146670697
 30
0.0
 10
3.250022700027561
 20
4.469151332842435
 30
0.0
 10
3.200331513730998
 20
4.457318110462489
 30
0.0
 10
3.162134877609089
 20
4.447767092563967
 30
0.0
 10
3.134599679437978
 20
4.44050140978491
 30
0.0
 10
3.117421638896318
 20
4.43554898719422
 30
0.0
 10
3.109106020611224
 20
4.432899645316351
 30
0.0
 10
3.109231070016587
 20
4.432540038354739
 30
0.0
 10
3.109244818880042
 20
4.432500500485701
 30
0.0
  0
SPLINE
  5
66
330
1F
100
AcDbEntity
  8
0
  6
Continuous
 62
     7
370
    15
100
AcDbSpline
210
0.0
220
0.0
230
1.0
 70
     8
 71
     3
 72
    13
 73
     9
 74
     0
 42
0.00000001
 43
0.00000001
 12
1.0
 22
0.0
 32
0.0
 13
1.0
 23
0.0
 33
0.0
 40
0.0
 40
0.0
 40
0.0
 40
0.0
 40
0.1503245467338179
 40
0.3006636637993843
 40
0.4541784794506604
 40
0.6076950704281604
 40
0.8029865790160091
 40
1.0
 40
1.0
 40
1.0
 40
1.0
 10
4.472737587695225
 20
4.564332657549373
 30
0.0
 10
4.443249862747747
 20
4.570798291036578
 30
0.0
 10
4.384271554730518
 20
4.583730184697892
 30
0.0
 10
4.284422839515112
 20
4.593848914086018
 30
0.0
 10
4.176447568058617
 20
4.598612452999937
 30
0.0
 10
4.049229949354339
 20
4.59702131063991
 30
0.0
 10
3.901979679824777
 20
4.588425180023684
 30
0.0
 10
3.787922713906052
 20
4.572052860584361
 30
0.0
 10
3.730643920424595
 20
4.563830770013887
 30
0.0
  0
SPLINE
  5
67
330
1F
100
AcDbEntity
  8
0
  6
Continuous
 62
     7
370
    15
100
AcDbSpline
210
0.0
220
0.0
230
1.0
 70
     8
 71
     3
 72
    17
 73
    13
 74
     0
 42
0.00000001
 43
0.00000001
 12
1.0
 22
0.0
 32
0.0
 13
1.0
 23
0.0
 33
0.0
 40
0.0
 40
0.0
 40
0.0
 40
0.0
 40
0.1245591220434969
 40
0.2497620769205572
 40
0.3739111626728416
 40
0.4998617532585288
 40
0.5820016871402842
 40
0.6653440426330968
 40
0.7498302458447681
 40
0.8317815357556695
 40
0.9152039849347182
 40
0.9999999999999999
 40
0.9999999999999999
 40
0.9999999999999999
 40
0.9999999999999999
 10
8.43000713964634
 20
4.481439228474672
 30
0.0
 10
8.425501251013124
 20
4.48193575846703
 30
0.0
 10
8.41646618328832
 20
4.482931384962385
 30
0.0
 10
8.374505407642284
 20
4.490817545456196
 30
0.0
 10
8.31230079839162
 20
4.503044054336776
 30
0.0
 10
8.238542371646398
 20
4.5175750537249
 30
0.0
 10
8.161519370447284
 20
4.532452960336077
 30
0.0
 10
8.08741423420455
 20
4.546426747049635
 30
0.0
 10
8.005794855241824
 20
4.561336347096976
 30
0.0
 10
7.917051648590608
 20
4.576894105316614
 30
0.0
 10
7.822195325677989
 20
4.592830149613677
 30
0.0
 10
7.753519944772019
 20
4.603507208823052
 30
0.0
 10
7.718901874395046
 20
4.608889329493563
 30
0.0
  0
SPLINE
  5
68
330
1F
100
AcDbEntity
  8
0
  6
Continuous
 62
     7
370
    15
100
AcDbSpline
210
0.0
220
0.0
230
1.0
 70
     8
 71
     3
 72
    13
 73
     9
 74
     0
 42
0.00000001
 43
0.00000001
 12
1.0
 22
0.0
 32
0.0
 13
1.0
 23
0.0
 33
0.0
 40
0.0
 40
0.0
 40
0.0
 40
0.0
 40
0.1667444322288886
 40
0.3327481289603317
 40
0.4983732769847833
 40
0.6649447772601401
 40
0.8323209427226007
 40
1.0
 40
1.0
 40
1.0
 40
1.0
 10
7.718901874395046
 20
4.608889329493563
 30
0.0
 10
7.667097070101015
 20
4.61587594568077
 30
0.0
 10
7.56371759607856
 20
4.629818141129107
 30
0.0
 10
7.416774084483143
 20
4.639620466721003
 30
0.0
 10
7.276936360288166
 20
4.643209922072741
 30
0.0
 10
7.145397291002055
 20
4.639857973357015
 30
0.0
 10
7.021695142420408
 20
4.630229082133043
 30
0.0
 10
6.947672871861956
 20
4.616334905609629
 30
0.0
 10
6.910628278307267
 20
4.609381537140871
 30
0.0
  0
SPLINE
  5
69
330
1F
100
AcDbEntity
  8
0
  6
Continuous
 62
     7
370
    15
100
AcDbSpline
210
0.0
220
0.0
230
1.0
 70
     8
 71
     3
 72
    17
 73
    13
 74
     0
 42
0.00000001
 43
0.00000001
 12
1.0
 22
0.0
 32
0.0
 13
1.0
 23
0.0
 33
0.0
 40
0.0
 40
0.0
 40
0.0
 40
0.0
 40
0.1264055773733838
 40
0.2497791569924814
 40
0.3344192855502279
 40
0.417957811581074
 40
0.5003402571976727
 40
0.5845244767117299
 40
0.6679374812372367
 40
0.7505567586604016
 40
0.875358869613492
 40
1.0
 40
1.0
 40
1.0
 40
1.0
 10
6.910628278307267
 20
4.609381537140871
 30
0.0
 10
6.874422644644235
 20
4.601710862909234
 30
0.0
 10
6.802879815264025
 20
4.586553505275541
 30
0.0
 10
6.689295037741286
 20
4.566487620830749
 30
0.0
 10
6.58240629183767
 20
4.549911996102367
 30
0.0
 10
6.484789969121662
 20
4.536533723305999
 30
0.0
 10
6.382500955836314
 20
4.524291091196711
 30
0.0
 10
6.275941368093666
 20
4.513411050672808
 30
0.0
 10
6.165633427362523
 20
4.504072991332497
 30
0.0
 10
6.034052788194243
 20
4.49529970277466
 30
0.0
 10
5.880089824872176
 20
4.488079098006581
 30
0.0
 10
5.762956257999994
 20
4.486629505421847
 30
0.0
 10
5.704427271194231
 20
4.485905176883655
 30
0.0
  0
SPLINE
  5
6A
330
1F
100
AcDbEntity
  8
0
  6
Continuous
 62
     7
370
    15
100
AcDbSpline
210
0.0
220
0.0
230
1.0
 70
     8
 71
     3
 72
    15
 73
    11
 74
     0
 42
0.00000001
 43
0.00000001
 12
1.0
 22
0.0
 32
0.0
 13
1.0
 23
0.0
 33
0.0
 40
0.0
 40
0.0
 40
0.0
 40
0.0
 40
0.1251515459452859
 40
0.2502826542317199
 40
0.3754773056323337
 40
0.5006543838941104
 40
0.6256553699671644
 40
0.7503325668311788
 40
0.875111072559653
 40
1.0
 40
1.0
 40
1.0
 40
1.0
 10
5.784101763053327
 20
4.616426442424191
 30
0.0
 10
5.798521277696821
 20
4.612758170847578
 30
0.0
 10
5.82735795222967
 20
4.605422226735159
 30
0.0
 10
5.853391415500727
 20
4.588870900846555
 30
0.0
 10
5.864546621299545
 20
4.569607275112914
 30
0.0
 10
5.859738574063758
 20
4.548601510116423
 30
0.0
 10
5.839921418094329
 20
4.527553820470162
 30
0.0
 10
5.806050920349759
 20
4.508492207776503
 30
0.0
 10
5.760168026518008
 20
4.492850126152279
 30
0.0
 10
5.723013000550901
 20
4.488220842445642
 30
0.0
 10
5.704427271194231
 20
4.485905176883655
 30
0.0
  0
SPLINE
  5
6B
330
1F
100
AcDbEntity
  8
0
  6
Continuous
 62
     7
370
    15
100
AcDbSpline
210
0.0
220
0.0
230
1.0
 70
     8
 71
     3
 72
    23
 73
    19
 74
     0
 42
0.00000001
 43
0.00000001
 12
1.0
 22
0.0
 32
0.0
 13
1.0
 23
0.0
 33
0.0
 40
0.0
 40
0.0
 40
0.0
 40
0.0
 40
0.0629132498600815
 40
0.125760194374794
 40
0.1882481250942716
 40
0.2507112770193549
 40
0.3136667319596802
 40
0.3755427692571131
 40
0.4386662686528923
 40
0.500287740542816
 40
0.5626734711090762
 40
0.625002242687998
 40
0.6875586451921651
 40
0.7497971430591966
 40
0.8124135577073377
 40
0.8748348633590962
 40
0.9372679838824721
 40
1.0
 40
1.0
 40
1.0
 40
1.0
 10
5.57736763358134
 20
4.49778709295608
 30
0.0
 10
5.567884019686872
 20
4.500980063198703
 30
0.0
 10
5.548926786840114
 20
4.507362638558239
 30
0.0
 10
5.527252789740981
 20
4.51936451478741
 30
0.0
 10
5.511095768510726
 20
4.532291644065642
 30
0.0
 10
5.501342765043979
 20
4.545879152072301
 30
0.0
 10
5.49781077896598
 20
4.559471446045599
 30
0.0
 10
5.500941906134258
 20
4.572739968234104
 30
0.0
 10
5.510381819243372
 20
4.58513080203059
 30
0.0
 10
5.526371543710458
 20
4.596375625011857
 30
0.0
 10
5.548218646237853
 20
4.60609902712229
 30
0.0
 10
5.575662584150227
 20
4.614088741700273
 30
0.0
 10
5.607622918250804
 20
4.620075010994646
 30
0.0
 10
5.642907159599932
 20
4.623916600045997
 30
0.0
 10
5.679944887544496
 20
4.625528834702329
 30
0.0
 10
5.716992626204827
 20
4.624826167019907
 30
0.0
 10
5.75274385021881
 20
4.6220109439293
 30
0.0
 10
5.773632498008762
 20
4.618290904089969
 30
0.0
 10
5.784101763053327
 20
4.616426442424191
 30
0.0
  0
SPLINE
  5
6C
330
1F
100
AcDbEntity
  8
0
  6
Continuous
 62
     7
370
    15
100
AcDbSpline
210
0.0
220
0.0
230
1.0
 70
     8
 71
     3
 72
     9
 73
     5
 74
     0
 42
0.00000001
 43
0.00000001
 12
1.0
 22
0.0
 32
0.0
 13
1.0
 23
0.0
 33
0.0
 40
0.0
 40
0.0
 40
0.0
 40
0.0
 40
0.4958442106418285
 40
1.0
 40
1.0
 40
1.0
 40
1.0
 10
5.642931056187087
 20
4.485905176883655
 30
0.0
 10
5.631277183608958
 20
4.487140739149181
 30
0.0
 10
5.607774090645457
 20
4.489632574768127
 30
0.0
 10
5.587559125361116
 20
4.495053900302122
 30
0.0
 10
5.57736763358134
 20
4.49778709295608
 30
0.0
  0
SPLINE
  5
6D
330
1F
100
AcDbEntity
  8
0
  6
Continuous
 62
     7
370
    15
100
AcDbSpline
210
0.0
220
0.0
230
1.0
 70
     8
 71
     3
 72
    17
 73
    13
 74
     0
 42
0.00000001
 43
0.00000001
 12
1.0
 22
0.0
 32
0.0
 13
1.0
 23
0.0
 33
0.0
 40
0.0
 40
0.0
 40
0.0
 40
0.0
 40
0.1244497505387671
 40
0.249595098287188
 40
0.373782651909942
 40
0.4997278274486566
 40
0.5819245963703211
 40
0.6652706235668782
 40
0.749711901591152
 40
0.8317740237073727
 40
0.915232974706148
 40
1.0
 40
1.0
 40
1.0
 40
1.0
 10
5.642931056187087
 20
4.485905176883655
 30
0.0
 10
5.584742477174702
 20
4.486639017439502
 30
0.0
 10
5.468040080947207
 20
4.488110800266472
 30
0.0
 10
5.297522695588345
 20
4.496182424173691
 30
0.0
 10
5.132743748765511
 20
4.508219867206543
 30
0.0
 10
4.994684576640039
 20
4.522263898929151
 30
0.0
 10
4.88084683737381
 20
4.536528744248747
 30
0.0
 10
4.788687597953824
 20
4.549873536154226
 30
0.0
 10
4.702640028313401
 20
4.564081819022958
 30
0.0
 10
4.623298598594655
 20
4.578895605625552
 30
0.0
 10
4.550287165958403
 20
4.594070162309857
 30
0.0
 10
4.507741767132865
 20
4.604251356900923
 30
0.0
 10
4.486303657645494
 20
4.609381537140871
 30
0.0
  0
SPLINE
  5
6E
330
1F
100
AcDbEntity
  8
0
  6
Continuous
 62
     7
370
    15
100
AcDbSpline
210
0.0
220
0.0
230
1.0
 70
     8
 71
     3
 72
    13
 73
     9
 74
     0
 42
0.00000001
 43
0.00000001
 12
1.0
 22
0.0
 32
0.0
 13
1.0
 23
0.0
 33
0.0
 40
0.0
 40
0.0
 40
0.0
 40
0.0
 40
0.1667402067989761
 40
0.3327481958325406
 40
0.4983724607650849
 40
0.6649404619110816
 40
0.8323129010548834
 40
1.0
 40
1.0
 40
1.0
 40
1.0
 10
4.486303657645494
 20
4.609381537140871
 30
0.0
 10
4.453311022923906
 20
4.616301467580194
 30
0.0
 10
4.38747063631214
 20
4.630110940491234
 30
0.0
 10
4.275495773101285
 20
4.639759424744004
 30
0.0
 10
4.154705150264867
 20
4.643210894041139
 30
0.0
 10
4.024185598265757
 20
4.639721064058252
 30
0.0
 10
3.885298597326742
 20
4.629937566717423
 30
0.0
 10
3.786498758210088
 20
4.615909799802028
 30
0.0
 10
3.737052446392756
 20
4.608889329493563
 30
0.0
  0
SPLINE
  5
6F
330
1F
100
AcDbEntity
  8
0
  6
Continuous
 62
     7
370
    15
100
AcDbSpline
210
0.0
220
0.0
230
1.0
 70
     8
 71
     3
 72
    15
 73
    11
 74
     0
 42
0.00000001
 43
0.00000001
 12
1.0
 22
0.0
 32
0.0
 13
1.0
 23
0.0
 33
0.0
 40
0.0
 40
0.0
 40
0.0
 40
0.0
 40
0.1247559199509707
 40
0.2498090615527874
 40
0.3750206564361192
 40
0.5002822524615939
 40
0.6252790382181572
 40
0.7500873866291174
 40
0.8752675214669496
 40
1.0
 40
1.0
 40
1.0
 40
1.0
 10
8.423584973835748
 20
4.484673924440522
 30
0.0
 10
8.421839440815704
 20
4.485215103808957
 30
0.0
 10
8.418344216173715
 20
4.48629875186521
 30
0.0
 10
8.398727133412098
 20
4.494631643665811
 30
0.0
 10
8.37071966658037
 20
4.506688864687699
 30
0.0
 10
8.335525098718358
 20
4.521675126463964
 30
0.0
 10
8.295623824826498
 20
4.538230804311993
 30
0.0
 10
8.253008105337033
 20
4.555296867361666
 30
0.0
 10
8.209363543958574
 20
4.572109005214459
 30
0.0
 10
8.181749844792936
 20
4.582172792951835
 30
0.0
 10
8.167967726748
 20
4.587195673433862
 30
0.0
  0
SPLINE
  5
70
330
1F
100
AcDbEntity
  8
0
  6
Continuous
 62
     7
370
    15
100
AcDbSpline
210
0.0
220
0.0
230
1.0
 70
     8
 71
     3
 72
    10
 73
     6
 74
     0
 42
0.00000001
 43
0.00000001
 12
1.0
 22
0.0
 32
0.0
 13
1.0
 23
0.0
 33
0.0
 40
0.0
 40
0.0
 40
0.0
 40
0.0
 40
0.485567036794181
 40
0.9702449177743016
 40
1.0
 40
1.0
 40
1.0
 40
1.0
 10
8.316309813087559
 20
4.534934543825558
 30
0.0
 10
8.331282339374852
 20
4.528472430746223
 30
0.0
 10
8.361199974707759
 20
4.515560037815471
 30
0.0
 10
8.388366914257496
 20
4.502954246737769
 30
0.0
 10
8.396072825734265
 20
4.4991163968228
 30
0.0
 10
8.396518539842837
 20
4.498894413497553
 30
0.0
  0
SPLINE
  5
71
330
1F
100
AcDbEntity
  8
0
  6
Continuous
 62
     7
370
    15
100
AcDbSpline
210
0.0
220
0.0
230
1.0
 70
     8
 71
     3
 72
    14
 73
    10
 74
     0
 42
0.00000001
 43
0.00000001
 12
1.0
 22
0.0
 32
0.0
 13
1.0
 23
0.0
 33
0.0
 40
0.0
 40
0.0
 40
0.0
 40
0.0
 40
0.0000993080440681
 40
0.1664746394006353
 40
0.3332235020082194
 40
0.5000795308675995
 40
0.6665835872446141
 40
0.8329187707514012
 40
1.0
 40
1.0
 40
1.0
 40
1.0
 10
8.084561410264884
 20
4.618173368910214
 30
0.0
 10
8.08456517413168
 20
4.618172342442111
 30
0.0
 10
8.090874717061547
 20
4.616451626775652
 30
0.0
 10
8.112518045432722
 20
4.609856784874382
 30
0.0
 10
8.147697092454049
 20
4.598643424977143
 30
0.0
 10
8.188965219933134
 20
4.584529114152173
 30
0.0
 10
8.232107476241195
 20
4.568760950841658
 30
0.0
 10
8.275704962014885
 20
4.551856371364497
 30
0.0
 10
8.302754687425999
 20
4.540583560941839
 30
0.0
 10
8.316309813087559
 20
4.534934543825558
 30
0.0
  0
SPLINE
  5
72
330
1F
100
AcDbEntity
  8
0
  6
Continuous
 62
     7
370
    15
100
AcDbSpline
210
0.0
220
0.0
230
1.0
 70
     8
 71
     3
 72
    11
 73
     7
 74
     0
 42
0.00000001
 43
0.00000001
 12
1.0
 22
0.0
 32
0.0
 13
1.0
 23
0.0
 33
0.0
 40
0.0
 40
0.0
 40
0.0
 40
0.0
 40
0.2497954562375885
 40
0.4998398458943096
 40
0.7498986400415909
 40
1.0
 40
1.0
 40
1.0
 40
1.0
 10
8.167967726748
 20
4.587195673433862
 30
0.0
 10
8.152306232856562
 20
4.592740385872572
 30
0.0
 10
8.12096763762717
 20
4.603835336327784
 30
0.0
 10
8.085022450048902
 20
4.615792986320734
 30
0.0
 10
8.060941121050284
 20
4.623714658687183
 30
0.0
 10
8.05902175016917
 20
4.624698659100636
 30
0.0
 10
8.058061983055195
 20
4.625190701178727
 30
0.0
  0
LINE
  5
73
330
1F
100
AcDbEntity
  8
0
  6
Continuous
 62
     7
370
    15
100
AcDbLine
 10
7.9687116286
 20
4.6480122109
 30
0.0
 11
3.5812374864
 21
4.6480122109
 31
0.0
  0
SPLINE
  5
74
330
1F
100
AcDbEntity
  8
0
  6
Continuous
 62
     7
370
    15
100
AcDbSpline
210
0.0
220
0.0
230
1.0
 70
     8
 71
     3
 72
    14
 73
    10
 74
     0
 42
0.00000001
 43
0.00000001
 12
1.0
 22
0.0
 32
0.0
 13
1.0
 23
0.0
 33
0.0
 40
0.0
 40
0.0
 40
0.0
 40
0.0
 40
0.0267741721846349
 40
0.189043051022169
 40
0.3511658245332728
 40
0.5133049975367646
 40
0.6756770573447305
 40
0.8380888617521863
 40
1.0
 40
1.0
 40
1.0
 40
1.0
 10
3.46426791762291
 20
4.617812573078158
 30
0.0
 10
3.463083061426208
 20
4.61748048732883
 30
0.0
 10
3.45471720686674
 20
4.61513574617974
 30
0.0
 10
3.427957655457706
 20
4.606946495967859
 30
0.0
 10
3.387109709957846
 20
4.593601426127245
 30
0.0
 10
3.340516878880689
 20
4.577215609924005
 30
0.0
 10
3.292868323784857
 20
4.559213201907967
 30
0.0
 10
3.246046303907981
 20
4.540366939778557
 30
0.0
 10
3.218621077960514
 20
4.52847651051274
 30
0.0
 10
3.204929633520898
 20
4.52254047366958
 30
0.0
  0
SPLINE
  5
75
330
1F
100
AcDbEntity
  8
0
  6
Continuous
 62
     7
370
    15
100
AcDbSpline
210
0.0
220
0.0
230
1.0
 70
     8
 71
     3
 72
     9
 73
     5
 74
     0
 42
0.00000001
 43
0.00000001
 12
1.0
 22
0.0
 32
0.0
 13
1.0
 23
0.0
 33
0.0
 40
0.0
 40
0.0
 40
0.0
 40
0.0
 40
0.5953554670314593
 40
1.0
 40
1.0
 40
1.0
 40
1.0
 10
3.204929633520898
 20
4.52254047366958
 30
0.0
 10
3.19307646257862
 20
4.517248827257378
 30
0.0
 10
3.173167061223191
 20
4.508360613903785
 30
0.0
 10
3.159745803468523
 20
4.501886612002986
 30
0.0
 10
3.154314964892536
 20
4.499266942527399
 30
0.0
  0
SPLINE
  5
76
330
1F
100
AcDbEntity
  8
0
  6
Continuous
 62
     7
370
    15
100
AcDbSpline
210
0.0
220
0.0
230
1.0
 70
     8
 71
     3
 72
    41
 73
    37
 74
     0
 42
0.00000001
 43
0.00000001
 12
1.0
 22
0.0
 32
0.0
 13
1.0
 23
0.0
 33
0.0
 40
0.0
 40
0.0
 40
0.0
 40
0.0
 40
0.0250308866246369
 40
0.0500635175410449
 40
0.0749398404239468
 40
0.0997862922862875
 40
0.1248032034377272
 40
0.1523378472505896
 40
0.1786177819606767
 40
0.2036434452131725
 40
0.2274155300379791
 40
0.2499347796297824
 40
0.2930952418268443
 40
0.334761385095154
 40
0.3749415913099318
 40
0.4377345969205958
 40
0.4995266127019276
 40
0.540750743255652
 40
0.5824119246359887
 40
0.6245229448366487
 40
0.6484888289328815
 40
0.6729885791106001
 40
0.6980242052949519
 40
0.723597466953447
 40
0.7497100941534312
 40
0.7683846638629095
 40
0.7879255395998422
 40
0.808333200571285
 40
0.829608059876623
 40
0.8517504058503694
 40
0.87476063078153
 40
0.8971645948143585
 40
0.9230557372190439
 40
0.9498467869334115
 40
0.9749229987790365
 40
1.0
 40
1.0
 40
1.0
 40
1.0
 10
6.923730813612328
 20
4.590559581240379
 30
0.0
 10
6.90928238869714
 20
4.58750324265763
 30
0.0
 10
6.880384532019936
 20
4.581390352509414
 30
0.0
 10
6.833635520536038
 20
4.572195855427491
 30
0.0
 10
6.784601477120519
 20
4.562967598608457
 30
0.0
 10
6.733021904070145
 20
4.553943391427459
 30
0.0
 10
6.677153253538714
 20
4.544763611252385
 30
0.0
 10
6.617725818585435
 20
4.535656346213944
 30
0.0
 10
6.555872162511381
 20
4.526895168686901
 30
0.0
 10
6.494917647746909
 20
4.518900491278711
 30
0.0
 10
6.43528925187626
 20
4.511675053851124
 30
0.0
 10
6.358599830685575
 20
4.503131057824684
 30
0.0
 10
6.26353685383732
 20
4.493881000854021
 30
0.0
 10
6.149108161562101
 20
4.484761898811425
 30
0.0
 10
6.013418912396939
 20
4.476278091936403
 30
0.0
 10
5.855255400431524
 20
4.469899219044911
 30
0.0
 10
5.694327718029152
 20
4.467682237855906
 30
0.0
 10
5.554516854240678
 20
4.46892787553467
 30
0.0
 10
5.434917523340435
 20
4.472145780926504
 30
0.0
 10
5.333594194587769
 20
4.476724693915086
 30
0.0
 10
5.250085501696118
 20
4.481734432091501
 30
0.0
 10
5.18344781350633
 20
4.486450634517187
 30
0.0
 10
5.116696873496162
 20
4.491904857479434
 30
0.0
 10
5.05007929519055
 20
4.498098396666733
 30
0.0
 10
4.99060358266853
 20
4.504321852915226
 30
0.0
 10
4.937636719658684
 20
4.510424793300069
 30
0.0
 10
4.890520546748702
 20
4.51627503068794
 30
0.0
 10
4.842644224310529
 20
4.522658321011686
 30
0.0
 10
4.794256371501545
 20
4.529575141389559
 30
0.0
 10
4.745631323861062
 20
4.537025208684145
 30
0.0
 10
4.698104054725095
 20
4.544839122187557
 30
0.0
 10
4.650083562838522
 20
4.55330809969241
 30
0.0
 10
4.601989101717852
 20
4.562377921874076
 30
0.0
 10
4.555180883550814
 20
4.571895159894659
 30
0.0
 10
4.511615822238694
 20
4.581320759531472
 30
0.0
 10
4.485697135190184
 20
4.587479941690384
 30
0.0
 10
4.472737587695225
 20
4.590559581240379
 30
0.0
  0
LINE
  5
77
330
1F
100
AcDbEntity
  8
0
  6
Continuous
 62
     7
370
    15
100
AcDbLine
 10
6.9237308136
 20
4.5643326575
 30
0.0
 11
6.9237308136
 21
4.5905595812
 31
0.0
  0
LINE
  5
78
330
1F
100
AcDbEntity
  8
0
  6
Continuous
 62
     7
370
    15
100
AcDbLine
 10
4.4727375877
 20
4.5905595812
 30
0.0
 11
4.4727375877
 21
4.5643326575
 31
0.0
  0
ARC
  5
79
330
1F
100
AcDbEntity
  8
0
  6
Continuous
 62
     7
370
    15
100
AcDbCircle
 10
6.9025852742
 20
4.5898110433
 30
0.0
 40
0.0211587840982843
100
AcDbArc
 50
2.0273857409
 51
67.6585120874
  0
ARC
  5
7A
330
1F
100
AcDbEntity
  8
0
  6
Continuous
 62
     7
370
    15
100
AcDbCircle
 10
4.4936594255
 20
4.589779908
 30
0.0
 40
0.0209363603673137
100
AcDbArc
 50
110.5692592838
 51
177.8658029474
  0
SPLINE
  5
7B
330
1F
100
AcDbEntity
  8
0
  6
Continuous
 62
     7
370
    15
100
AcDbSpline
210
0.0
220
0.0
230
1.0
 70
     8
 71
     3
 72
     9
 73
     5
 74
     0
 42
0.00000001
 43
0.00000001
 12
1.0
 22
0.0
 32
0.0
 13
1.0
 23
0.0
 33
0.0
 40
0.0
 40
0.0
 40
0.0
 40
0.0
 40
0.4999999292010515
 40
1.0
 40
1.0
 40
1.0
 40
1.0
 10
5.642931083686769
 20
4.485905323548628
 30
0.0
 10
5.65315244439259
 20
4.48556058756359
 30
0.0
 10
5.673595168698878
 20
4.484871115495888
 30
0.0
 10
5.69414989967009
 20
4.485560587498505
 30
0.0
 10
5.70442726661095
 20
4.485905323548628
 30
0.0
  0
ARC
  5
7C
330
1F
100
AcDbEntity
  8
0
  6
Continuous
 62
     7
370
    15
100
AcDbCircle
 10
5.5817144056
 20
4.4916980074
 30
0.0
 40
0.0074814029308016
100
AcDbArc
 50
76.191819875
 51
125.5216314608
  0
ARC
  5
7D
330
1F
100
AcDbEntity
  8
0
  6
Continuous
 62
     7
370
    15
100
AcDbCircle
 10
5.796429052
 20
4.5962985001
 30
0.0
 40
0.0236028836143676
100
AcDbArc
 50
121.4852426779
 51
176.996043321
  0
SPLINE
  5
7E
330
1F
100
AcDbEntity
  8
0
  6
Continuous
 62
     7
370
    15
100
AcDbSpline
210
0.0
220
0.0
230
1.0
 70
     8
 71
     3
 72
    15
 73
    11
 74
     0
 42
0.00000001
 43
0.00000001
 12
1.0
 22
0.0
 32
0.0
 13
1.0
 23
0.0
 33
0.0
 40
0.0
 40
0.0
 40
0.0
 40
0.0
 40
0.1247318347506588
 40
0.2498564843686601
 40
0.3780279969185332
 40
0.4995032588070383
 40
0.6249618333945857
 40
0.7495104698419706
 40
0.8741804488816161
 40
1.0
 40
1.0
 40
1.0
 40
1.0
 10
5.519544381560482
 20
4.544248209566629
 30
0.0
 10
5.521051084216806
 20
4.550023741137784
 30
0.0
 10
5.524069234550686
 20
4.561592993018137
 30
0.0
 10
5.541834497429256
 20
4.577118359824415
 30
0.0
 10
5.568744047164723
 20
4.589903462789565
 30
0.0
 10
5.60435429249844
 20
4.599428593830059
 30
0.0
 10
5.645739056936466
 20
4.605133108321957
 30
0.0
 10
5.690311569917409
 20
4.606801452511919
 30
0.0
 10
5.734710505038349
 20
4.604687734512039
 30
0.0
 10
5.760103723112566
 20
4.599926799507852
 30
0.0
 10
5.772858600721755
 20
4.597535407321708
 30
0.0
  0
SPLINE
  5
7F
330
1F
100
AcDbEntity
  8
0
  6
Continuous
 62
     7
370
    15
100
AcDbSpline
210
0.0
220
0.0
230
1.0
 70
     8
 71
     3
 72
    14
 73
    10
 74
     0
 42
0.00000001
 43
0.00000001
 12
1.0
 22
0.0
 32
0.0
 13
1.0
 23
0.0
 33
0.0
 40
0.0
 40
0.0
 40
0.0
 40
0.0
 40
0.1225013432799181
 40
0.251331529631478
 40
0.3749611540813866
 40
0.5016108591095857
 40
0.6686194936934453
 40
0.836174085856286
 40
1.0
 40
1.0
 40
1.0
 40
1.0
 10
6.923730813612328
 20
4.590559581240379
 30
0.0
 10
6.950432688230215
 20
4.595781502932146
 30
0.0
 10
7.005215948658691
 20
4.60649512885059
 30
0.0
 10
7.094051895125397
 20
4.616038621207066
 30
0.0
 10
7.188772770976148
 20
4.6217978450966
 30
0.0
 10
7.298608877172735
 20
4.623737716228936
 30
0.0
 10
7.426726039501482
 20
4.620492336067977
 30
0.0
 10
7.572180074685396
 20
4.610663256447302
 30
0.0
 10
7.67396467155348
 20
4.596884214126447
 30
0.0
 10
7.724284332216434
 20
4.590072213537159
 30
0.0
  0
ARC
  5
80
330
1F
100
AcDbEntity
  8
0
  6
Continuous
 62
     7
370
    15
100
AcDbCircle
 10
7.7051530415
 20
4.5947782475
 30
0.0
 40
0.0197015999017973
100
AcDbArc
 50
346.1804046086
 51
45.7449475585
  0
LINE
  5
81
330
1F
100
AcDbEntity
  8
0
  6
Continuous
 62
     7
370
    15
100
AcDbLine
 10
7.7242843322
 20
4.5900722135
 30
0.0
 11
7.7242843322
 21
4.56383077
 31
0.0
  0
SPLINE
  5
82
330
1F
100
AcDbEntity
  8
0
  6
Continuous
 62
     7
370
    15
100
AcDbSpline
210
0.0
220
0.0
230
1.0
 70
     8
 71
     3
 72
    14
 73
    10
 74
     0
 42
0.00000001
 43
0.00000001
 12
1.0
 22
0.0
 32
0.0
 13
1.0
 23
0.0
 33
0.0
 40
0.0
 40
0.0
 40
0.0
 40
0.0
 40
0.1224970745958368
 40
0.2513364134858109
 40
0.3749260305312727
 40
0.5016118789012439
 40
0.6685864690458929
 40
0.8361680713846249
 40
1.0
 40
1.0
 40
1.0
 40
1.0
 10
3.730643920424595
 20
4.590072213537159
 30
0.0
 10
3.766444904820504
 20
4.595343102504302
 30
0.0
 10
3.839900463224796
 20
4.606157779779287
 30
0.0
 10
3.944753870927544
 20
4.615824800681603
 30
0.0
 10
4.046618850670687
 20
4.621696126715523
 30
0.0
 10
4.153512243151176
 20
4.623749982035744
 30
0.0
 10
4.264332601554617
 20
4.620631528509347
 30
0.0
 10
4.375310898918436
 20
4.610955954713408
 30
0.0
 10
4.440507908427117
 20
4.597306896411629
 30
0.0
 10
4.472737587695225
 20
4.590559581240379
 30
0.0
  0
ARC
  5
83
330
1F
100
AcDbEntity
  8
0
  6
Continuous
 62
     7
370
    15
100
AcDbCircle
 10
3.7488757819
 20
4.5943628376
 30
0.0
 40
0.0187299287050181
100
AcDbArc
 50
129.1426739968
 51
193.2428256432
  0
LINE
  5
84
330
1F
100
AcDbEntity
  8
0
  6
Continuous
 62
     7
370
    15
100
AcDbLine
 10
3.7306439204
 20
4.56383077
 30
0.0
 11
3.7306439204
 21
4.5900722135
 31
0.0
  0
SPLINE
  5
85
330
1F
100
AcDbEntity
  8
0
  6
Continuous
 62
     7
370
    15
100
AcDbSpline
210
0.0
220
0.0
230
1.0
 70
     8
 71
     3
 72
    28
 73
    24
 74
     0
 42
0.00000001
 43
0.00000001
 12
1.0
 22
0.0
 32
0.0
 13
1.0
 23
0.0
 33
0.0
 40
0.0
 40
0.0
 40
0.0
 40
0.0
 40
0.0616884016352025
 40
0.1238768755513857
 40
0.1865767518656521
 40
0.2497990413631977
 40
0.2976391511487589
 40
0.3465698908402469
 40
0.3965952777101488
 40
0.447719099175321
 40
0.4999447708158298
 40
0.5317171508692522
 40
0.5647994881241666
 40
0.5991923296296975
 40
0.6348962177714912
 40
0.6719116958771725
 40
0.7102390324675961
 40
0.7498786454219032
 40
0.7942556816562241
 40
0.8460708134763962
 40
0.8998138338267823
 40
0.9499065943278893
 40
1.0
 40
1.0
 40
1.0
 40
1.0
 10
8.440802854933317
 20
4.463871698082949
 30
0.0
 10
8.439103957930385
 20
4.463993170941591
 30
0.0
 10
8.435692391946699
 20
4.464237101369257
 30
0.0
 10
8.42342482973984
 20
4.466193011504818
 30
0.0
 10
8.40580408016004
 20
4.469309159387075
 30
0.0
 10
8.384223952299516
 20
4.473333688550952
 30
0.0
 10
8.360239069327077
 20
4.477925098590831
 30
0.0
 10
8.334971836439033
 20
4.482809302585626
 30
0.0
 10
8.305806748335984
 20
4.488455795673177
 30
0.0
 10
8.272600208779464
 20
4.494866328760132
 30
0.0
 10
8.240365330534752
 20
4.501050376400665
 30
0.0
 10
8.210405924442787
 20
4.506770807134598
 30
0.0
 10
8.183705925275168
 20
4.511836982564636
 30
0.0
 10
8.154570282934763
 20
4.517310316518129
 30
0.0
 10
8.122873633793585
 20
4.523191295475796
 30
0.0
 10
8.088495446586617
 20
4.529480177693173
 30
0.0
 10
8.051320162077621
 20
4.536176346823463
 30
0.0
 10
8.010085462708297
 20
4.543485157637284
 30
0.0
 10
7.962366942936928
 20
4.551797155888235
 30
0.0
 10
7.907358974248921
 20
4.561119051542174
 30
0.0
 10
7.847694072974829
 20
4.570916092426276
 30
0.0
 10
7.786525861704665
 20
4.580603050098281
 30
0.0
 10
7.745031597783012
 20
4.58691581217339
 30
0.0
 10
7.724284332216434
 20
4.590072213537159
 30
0.0
  0
ARC
  5
86
330
1F
100
AcDbEntity
  8
0
  6
Continuous
 62
     7
370
    15
100
AcDbCircle
 10
8.3151772355
 20
4.5280404356
 30
0.0
 40
0.0069865199341828
100
AcDbArc
 50
80.6706703253
 51
140.5581807296
  0
LINE
  5
87
330
1F
100
AcDbEntity
  8
0
  6
Continuous
 62
     8
370
    15
100
AcDbLine
 10
8.5425167733
 20
2.3453778851
 30
0.0
 11
3.0177188362
 21
2.3453778851
 31
0.0
  0
SPLINE
  5
88
330
1F
100
AcDbEntity
  8
0
  6
Continuous
 62
     8
370
    15
100
AcDbSpline
210
0.0
220
0.0
230
1.0
 70
     8
 71
     3
 72
    25
 73
    21
 74
     0
 42
0.00000001
 43
0.00000001
 12
1.0
 22
0.0
 32
0.0
 13
1.0
 23
0.0
 33
0.0
 40
0.0
 40
0.0
 40
0.0
 40
0.0
 40
0.0093756934863985
 40
0.0631433582637763
 40
0.1167038450928831
 40
0.1701193538178472
 40
0.2236009967468108
 40
0.277537279180154
 40
0.3418565849816111
 40
0.4067469562291537
 40
0.4719345034069086
 40
0.5371884667736295
 40
0.595393454455283
 40
0.653519161978645
 40
0.711645118413146
 40
0.7697983413061531
 40
0.8278810333802011
 40
0.885733685369199
 40
0.9431680852931846
 40
1.0
 40
1.0
 40
1.0
 40
1.0
 10
7.577093712575032
 20
4.648012210876032
 30
0.0
 10
7.577048887665585
 20
4.659072216204807
 30
0.0
 10
7.576747001162952
 20
4.733559066685491
 30
0.0
 10
7.575351546614289
 20
4.87122842551115
 30
0.0
 10
7.56866939760466
 20
5.060752355244579
 30
0.0
 10
7.553733496389662
 20
5.249420106714041
 30
0.0
 10
7.527293243312759
 20
5.437094891619475
 30
0.0
 10
7.483203841620107
 20
5.634055547957811
 30
0.0
 10
7.417345758714302
 20
5.83797874196459
 30
0.0
 10
7.327427186308895
 20
6.045214386858381
 30
0.0
 10
7.217761372729835
 20
6.241866666607825
 30
0.0
 10
7.0939128099713
 20
6.418159546547279
 30
0.0
 10
6.959000912225389
 20
6.572801688348235
 30
0.0
 10
6.815796049660899
 20
6.705440524451262
 30
0.0
 10
6.659878767351768
 20
6.819258799323363
 30
0.0
 10
6.493596363101033
 20
6.913325876094143
 30
0.0
 10
6.319527037832444
 20
6.987497805790199
 30
0.0
 10
6.140185184612311
 20
7.040728492898926
 30
0.0
 10
5.958101675073014
 20
7.074618585436501
 30
0.0
 10
5.83580199557312
 20
7.078935914497565
 30
0.0
 10
5.774974576954901
 20
7.08108319716571
 30
0.0
  0
LINE
  5
89
330
1F
100
AcDbEntity
  8
0
  6
Continuous
 62
     8
370
    15
100
AcDbLine
 10
8.4799145898
 20
4.3895063972
 30
0.0
 11
3.0700345252
 21
4.3895063972
 31
0.0
  0
LINE
  5
8A
330
1F
100
AcDbEntity
  8
0
  6
Continuous
 62
     8
370
    15
100
AcDbLine
 10
8.4592321887
 20
4.4227975859
 30
0.0
 11
3.0907169262
 21
4.4227975859
 31
0.0
  0
LINE
  5
8B
330
1F
100
AcDbEntity
  8
0
  6
Continuous
 62
     8
370
    15
100
AcDbLine
 10
8.4276625534
 20
4.4828467722
 30
0.0
 11
8.4300071396
 21
4.4814392285
 31
0.0
  0
SPLINE
  5
8C
330
1F
100
AcDbEntity
  8
0
  6
Continuous
 62
     8
370
    15
100
AcDbSpline
210
0.0
220
0.0
230
1.0
 70
     8
 71
     3
 72
    17
 73
    13
 74
     0
 42
0.00000001
 43
0.00000001
 12
1.0
 22
0.0
 32
0.0
 13
1.0
 23
0.0
 33
0.0
 40
0.0
 40
0.0
 40
0.0
 40
0.0
 40
0.1359210008014332
 40
0.2684129367735129
 40
0.3593999622831469
 40
0.4491515427707546
 40
0.5376041621766173
 40
0.6281403515052977
 40
0.7178265770377624
 40
0.8066374556691188
 40
0.941043303332033
 40
1.0
 40
1.0
 40
1.0
 40
1.0
 10
3.737052446392756
 20
4.608889329493563
 30
0.0
 10
3.688480405245027
 20
4.600837961505832
 30
0.0
 10
3.592561716207471
 20
4.584938348393151
 30
0.0
 10
3.480748881026225
 20
4.563847392121449
 30
0.0
 10
3.393582052315983
 20
4.546456970076604
 30
0.0
 10
3.326918397878853
 20
4.532453497819179
 30
0.0
 10
3.268772990396124
 20
4.519683876489634
 30
0.0
 10
3.219629195558721
 20
4.508410208104731
 30
0.0
 10
3.179581749665287
 20
4.498798493431072
 30
0.0
 10
3.14496087097535
 20
4.490014958401305
 30
0.0
 10
3.123179773941646
 20
4.484041457738245
 30
0.0
 10
3.122549892937236
 20
4.483138284895463
 30
0.0
 10
3.122357840730628
 20
4.482862905361569
 30
0.0
  0
SPLINE
  5
8D
330
1F
100
AcDbEntity
  8
0
  6
Continuous
 62
     8
370
    15
100
AcDbSpline
210
0.0
220
0.0
230
1.0
 70
     8
 71
     3
 72
     9
 73
     5
 74
     0
 42
0.00000001
 43
0.00000001
 12
1.0
 22
0.0
 32
0.0
 13
1.0
 23
0.0
 33
0.0
 40
0.0
 40
0.0
 40
0.0
 40
0.0
 40
0.484240388646873
 40
1.0
 40
1.0
 40
1.0
 40
1.0
 10
8.396518539842837
 20
4.498894413497553
 30
0.0
 10
8.404617819010959
 20
4.49492853249745
 30
0.0
 10
8.421343559692675
 20
4.486738631173472
 30
0.0
 10
8.422822299544485
 20
4.485376471423677
 30
0.0
 10
8.423584973835748
 20
4.484673924440522
 30
0.0
  0
SPLINE
  5
8E
330
1F
100
AcDbEntity
  8
0
  6
Continuous
 62
     8
370
    15
100
AcDbSpline
210
0.0
220
0.0
230
1.0
 70
     8
 71
     3
 72
     9
 73
     5
 74
     0
 42
0.00000001
 43
0.00000001
 12
1.0
 22
0.0
 32
0.0
 13
1.0
 23
0.0
 33
0.0
 40
0.0
 40
0.0
 40
0.0
 40
0.0
 40
0.5004969396687347
 40
1.0
 40
1.0
 40
1.0
 40
1.0
 10
8.058061983055195
 20
4.625190701178727
 30
0.0
 10
8.059689266663963
 20
4.624890193753638
 30
0.0
 10
8.062940602446043
 20
4.624289775646613
 30
0.0
 10
8.07735925112427
 20
4.620210819825711
 30
0.0
 10
8.084561410264884
 20
4.618173368910214
 30
0.0
  0
SPLINE
  5
8F
330
1F
100
AcDbEntity
  8
0
  6
Continuous
 62
     8
370
    15
100
AcDbSpline
210
0.0
220
0.0
230
1.0
 70
     8
 71
     3
 72
    11
 73
     7
 74
     0
 42
0.00000001
 43
0.00000001
 12
1.0
 22
0.0
 32
0.0
 13
1.0
 23
0.0
 33
0.0
 40
0.0
 40
0.0
 40
0.0
 40
0.0
 40
0.2532427465232061
 40
0.5208606063070442
 40
0.7807273983015555
 40
1.0
 40
1.0
 40
1.0
 40
1.0
 10
5.772858600721755
 20
4.597535407321708
 30
0.0
 10
5.78343139016197
 20
4.594651296324685
 30
0.0
 10
5.805177124615541
 20
4.588719360175713
 30
0.0
 10
5.827174995378412
 20
4.575941360613538
 30
0.0
 10
5.840388223220168
 20
4.56174853637255
 30
0.0
 10
5.84123977590315
 20
4.551502605171234
 30
0.0
 10
5.841629479139283
 20
4.546813673263507
 30
0.0
  0
LINE
  5
90
330
1F
100
AcDbEntity
  8
0
  6
Continuous
 62
     8
370
    15
100
AcDbLine
 10
5.5195851911
 20
4.5415503074
 30
0.0
 11
5.5195443816
 21
4.5442482096
 31
0.0
  0
LINE
  5
91
330
1F
100
AcDbEntity
  8
0
  6
Continuous
 62
     8
370
    15
100
AcDbLine
 10
8.4395242297
 20
4.4646406625
 30
0.0
 11
8.4408028549
 21
4.4638716981
 31
0.0
  0
SPLINE
  5
92
330
1F
100
AcDbEntity
  8
0
  6
Continuous
 62
     8
370
    15
100
AcDbSpline
210
0.0
220
0.0
230
1.0
 70
     8
 71
     3
 72
    22
 73
    18
 74
     0
 42
0.00000001
 43
0.00000001
 12
1.0
 22
0.0
 32
0.0
 13
1.0
 23
0.0
 33
0.0
 40
0.0
 40
0.0
 40
0.0
 40
0.0
 40
0.0517799200925585
 40
0.1035644238197752
 40
0.1550246889790522
 40
0.206424618103114
 40
0.2581814573094928
 40
0.3153034481514965
 40
0.3697485116750083
 40
0.4215174809441342
 40
0.4706117990811207
 40
0.5170328759651508
 40
0.6064103470353915
 40
0.6926108397664404
 40
0.775651932613607
 40
0.9056150040412959
 40
0.9999999999999999
 40
0.9999999999999999
 40
0.9999999999999999
 40
0.9999999999999999
 10
3.730643920424595
 20
4.590072213537159
 30
0.0
 10
3.711068470675744
 20
4.586954012121506
 30
0.0
 10
3.671915838330451
 20
4.580717333262425
 30
0.0
 10
3.616084337630408
 20
4.571323852249906
 30
0.0
 10
3.562582618221458
 20
4.561885431911509
 30
0.0
 10
3.511564761023308
 20
4.552645942205112
 30
0.0
 10
3.461332114870602
 20
4.543227510042813
 30
0.0
 10
3.413138251579101
 20
4.53386846903383
 30
0.0
 10
3.368142849220781
 20
4.524855769552177
 30
0.0
 10
3.328372401218213
 20
4.516633329329427
 30
0.0
 10
3.293461395147577
 20
4.509204739765513
 30
0.0
 10
3.253063748092281
 20
4.500399211390159
 30
0.0
 10
3.210569227081027
 20
4.490846469436545
 30
0.0
 10
3.170395707532271
 20
4.481368710291117
 30
0.0
 10
3.135245549297
 20
4.47260774170737
 30
0.0
 10
3.111240523442366
 20
4.466121635055055
 30
0.0
 10
3.110504339580393
 20
4.465042774793017
 30
0.0
 10
3.110194621241177
 20
4.46458888979789
 30
0.0
  0
LINE
  5
93
330
1F
100
AcDbEntity
  8
0
  6
Continuous
 62
     8
370
    15
100
AcDbLine
 10
8.1687358112
 20
4.5868784371
 30
0.0
 11
8.1679677267
 21
4.5871956734
 31
0.0
  0
LINE
  5
94
330
1F
100
AcDbEntity
  8
0
  6
Continuous
 62
     7
370
     0
100
AcDbLine
 10
3.7878721812
 20
4.6579182709
 30
0.0
 11
7.7620733372
 21
4.6579182709
 31
0.0
  0
DIMENSION
  5
95
330
1F
100
AcDbEntity
  8
0
  6
Continuous
 62
     7
370
     0
100
AcDbDimension
  2
_D
 10
7.7620733372
 20
7.7110051344
 30
0.0
 11
5.9489196158
 21
7.7110051344
 31
0.0
 70
   160
  1
[102]\P4.0
 71
     2
 42
-1.0
  3
SLDDIMSTYLE0
100
AcDbAlignedDimension
 13
3.7878721812
 23
4.6579182709
 33
0.0
 14
7.7620733372
 24
4.6579182709
 34
0.0
100
AcDbRotatedDimension
  0
DIMENSION
  5
A2
330
1F
100
AcDbEntity
  8
0
  6
Continuous
 62
     7
370
     0
100
AcDbDimension
  2
_D_1
 10
3.0177189553
 20
1.3487995984
 30
0.0
 11
5.7181929014
 21
1.3487995984
 31
0.0
 70
   160
  1
%%c<>
 71
     2
 42
-1.0
  3
SLDDIMSTYLE1
100
AcDbAlignedDimension
 13
8.5425166542
 23
2.3453778848
 33
0.0
 14
3.0177189553
 24
2.3453778848
 34
0.0
 50
0.0
100
AcDbRotatedDimension
  0
DIMENSION
  5
B5
330
1F
100
AcDbEntity
  8
0
  6
Continuous
 62
     7
370
     0
100
AcDbDimension
  2
_D_2
 10
2.2049149421
 20
2.2149413307
 30
0.0
 11
2.2049149421
 21
3.3493410058
 31
0.0
 70
   160
  1
[63]\P2.48
 71
     2
 42
-1.0
  3
SLDDIMSTYLE1
100
AcDbAlignedDimension
 13
3.5812375435
 23
4.6480121968
 33
0.0
 14
3.0438973323
 24
2.2149413307
 34
0.0
 50
90.0
100
AcDbRotatedDimension
  0
DIMENSION
  5
C0
330
1F
100
AcDbEntity
  8
0
  6
Continuous
 62
     7
370
     0
100
AcDbDimension
  2
_D_3
 10
2.2049149421
 20
4.6480121968
 30
0.0
 11
2.2049149421
 21
5.8908604658
 31
0.0
 70
   160
  1
[62]\P2.44
 71
     2
 42
-1.0
  3
SLDDIMSTYLE2
100
AcDbAlignedDimension
 13
5.774974577
 23
7.0810830629
 33
0.0
 14
3.5812375435
 24
4.6480121968
 34
0.0
 50
90.0
100
AcDbRotatedDimension
  0
ENDSEC
  0
SECTION
  2
OBJECTS
  0
DICTIONARY
  5
C
330
0
100
AcDbDictionary
281
     1
  3
ACAD_GROUP
350
D
  3
ACAD_LAYOUT
350
1A
  3
ACAD_MLINESTYLE
350
17
  3
ACAD_PLOTSETTINGS
350
19
  3
ACAD_PLOTSTYLENAME
350
E
  0
DICTIONARY
  5
D
102
{ACAD_REACTORS
330
C
102
}
330
C
100
AcDbDictionary
281
     1
  0
DICTIONARY
  5
1A
102
{ACAD_REACTORS
330
C
102
}
330
C
100
AcDbDictionary
281
     1
  3
Layout1
350
1E
  3
Layout2
350
26
  3
Model
350
22
  0
DICTIONARY
  5
17
102
{ACAD_REACTORS
330
C
102
}
330
C
100
AcDbDictionary
281
     1
  3
Standard
350
18
  0
DICTIONARY
  5
19
102
{ACAD_REACTORS
330
C
102
}
330
C
100
AcDbDictionary
281
     1
  0
ACDBDICTIONARYWDFLT
  5
E
102
{ACAD_REACTORS
330
C
102
}
330
C
100
AcDbDictionary
281
     1
  3
Normal
350
F
100
AcDbDictionaryWithDefault
340
F
  0
LAYOUT
  5
1E
102
{ACAD_REACTORS
330
1A
102
}
330
1A
100
AcDbPlotSettings
  1

  2
none_device
  4

  6

 40
0.0
 41
0.0
 42
0.0
 43
0.0
 44
0.0
 45
0.0
 46
0.0
 47
0.0
 48
0.0
 49
0.0
140
0.0
141
0.0
142
1.0
143
1.0
 70
   688
 72
     0
 73
     0
 74
     5
  7

 75
    16
147
1.0
148
0.0
149
0.0
100
AcDbLayout
  1
Layout1
 70
     1
 71
     1
 10
0.0
 20
0.0
 11
12.0
 21
9.0
 12
0.0
 22
0.0
 32
0.0
 14
1.0000000000E+20
 24
1.0000000000E+20
 34
1.0000000000E+20
 15
-1.0000000000E+20
 25
-1.0000000000E+20
 35
-1.0000000000E+20
146
0.0
 13
0.0
 23
0.0
 33
0.0
 16
1.0
 26
0.0
 36
0.0
 17
0.0
 27
1.0
 37
0.0
 76
     0
330
1B
  0
LAYOUT
  5
26
102
{ACAD_REACTORS
330
1A
102
}
330
1A
100
AcDbPlotSettings
  1

  2
none_device
  4

  6

 40
0.0
 41
0.0
 42
0.0
 43
0.0
 44
0.0
 45
0.0
 46
0.0
 47
0.0
 48
0.0
 49
0.0
140
0.0
141
0.0
142
1.0
143
1.0
 70
   688
 72
     0
 73
     0
 74
     5
  7

 75
    16
147
1.0
148
0.0
149
0.0
100
AcDbLayout
  1
Layout2
 70
     1
 71
     2
 10
0.0
 20
0.0
 11
0.0
 21
0.0
 12
0.0
 22
0.0
 32
0.0
 14
0.0
 24
0.0
 34
0.0
 15
0.0
 25
0.0
 35
0.0
146
0.0
 13
0.0
 23
0.0
 33
0.0
 16
1.0
 26
0.0
 36
0.0
 17
0.0
 27
1.0
 37
0.0
 76
     0
330
23
  0
LAYOUT
  5
22
102
{ACAD_REACTORS
330
1A
102
}
330
1A
100
AcDbPlotSettings
  1

  2
none_device
  4

  6

 40
0.0
 41
0.0
 42
0.0
 43
0.0
 44
0.0
 45
0.0
 46
0.0
 47
0.0
 48
0.0
 49
0.0
140
0.0
141
0.0
142
1.0
143
1.0
 70
  1712
 72
     0
 73
     0
 74
     0
  7

 75
     0
147
1.0
148
0.0
149
0.0
100
AcDbLayout
  1
Model
 70
     1
 71
     0
 10
0.0
 20
0.0
 11
11.0
 21
8.5
 12
0.0
 22
0.0
 32
0.0
 14
0.0
 24
0.0
 34
0.0
 15
11.0
 25
8.5
 35
0.0
146
0.0
 13
0.0
 23
0.0
 33
0.0
 16
1.0
 26
0.0
 36
0.0
 17
0.0
 27
1.0
 37
0.0
 76
     0
330
1F
331
29
  0
MLINESTYLE
  5
18
102
{ACAD_REACTORS
330
17
102
}
330
17
100
AcDbMlineStyle
  2
Standard
 70
     0
  3

 62
   256
 51
90.0
 52
90.0
 71
     2
 49
0.5
 62
   256
  6
BYLAYER
 49
-0.5
 62
   256
  6
BYLAYER
  0
ACDBPLACEHOLDER
  5
F
102
{ACAD_REACTORS
330
E
102
}
330
E
  0
ENDSEC
  0
EOF
